<?xml version="1.0" standalone="no"?>
<!DOCTYPE svg PUBLIC "-//W3C//DTD SVG 1.1//EN" "http://www.w3.org/Graphics/SVG/1.1/DTD/svg11.dtd" >
<svg xmlns="http://www.w3.org/2000/svg">
<metadata>
This is a custom SVG webfont generated by Font Squirrel.
</metadata>
<defs>
<font id="AmperzandRegular" horiz-adv-x="1716" >
<font-face units-per-em="2048" ascent="1536" descent="-512" />
<missing-glyph horiz-adv-x="409" />
<glyph unicode=" "  horiz-adv-x="409" />
<glyph unicode="&#x09;" horiz-adv-x="409" />
<glyph unicode="&#xa0;" horiz-adv-x="409" />
<glyph unicode="!" horiz-adv-x="546" d="M51 113q0 59 37 99t96 40q31 0 53.5 -12.5t39 -32t24.5 -42t8 -42.5q0 -59 -36.5 -101t-102.5 -42q-12 0 -32.5 7t-39 22.5t-33 41t-14.5 62.5zM231 438q6 23 19.5 92.5t31 162.5t36 195.5t35 190.5t27.5 147.5t13 67.5q12 55 51 82t113 27q68 0 98.5 -28.5t30.5 -61.5 q0 -23 -9 -51.5t-20 -55.5q-2 -6 -29.5 -65.5t-66.5 -146.5t-85 -186t-85 -185t-66.5 -145.5t-29.5 -65.5q-4 -6 -12.5 -11.5t-26.5 -5.5q-16 0 -22.5 12.5t-2.5 30.5z" />
<glyph unicode="&#x22;" horiz-adv-x="471" d="M190 918q8 39 19.5 102t22 127.5t20.5 119t16 76.5q12 37 45 48.5t76 11.5q82 0 82 -70q0 -16 -21.5 -59t-54.5 -103.5t-71.5 -130t-71.5 -139.5zM487 918q8 39 19.5 102t22 127.5t20.5 119t16 76.5q12 37 45 48.5t76 11.5q82 0 82 -68q0 -14 -23.5 -60t-57.5 -107.5 t-71.5 -132t-68.5 -134.5z" />
<glyph unicode="#" horiz-adv-x="1024" d="M92 395l37 109q10 25 16.5 30t16.5 5h164l75 237h-168q-37 0 -26 29l35 117q8 23 30 22h177l114 359q6 18 23 18h108q18 0 13 -18l-115 -359h158l112 350q8 27 27 27h102q23 0 15 -27l-113 -350h172q27 0 16 -29l-39 -112q-10 -27 -36 -27h-154l-76 -237h185 q10 0 17 -7.5t1 -23.5l-41 -119q-8 -18 -41 -18h-174l-123 -379q-6 -23 -18 -23h-123q-10 0 -4 21l125 381h-160l-121 -371q-10 -31 -20 -31h-119q-14 0 -6 27l122 375h-163q-27 -1 -21 24zM469 539h164l78 237h-166z" />
<glyph unicode="$" horiz-adv-x="1024" d="M68 137l129 365q6 18 18 14l29 -8q6 -4 10 -8t0 -15q-27 -106 3 -175.5t89 -116.5l113 428q-74 66 -124 144.5t-50 192.5q0 39 18.5 87.5t58 90.5t102 72.5t148.5 36.5l41 162q4 16 17 14l45 -6q10 -4 4 -24l-37 -144q49 -4 86 -12l39 162q4 14 18 12l37 -6q16 -2 10 -25 l-41 -161q35 -12 52.5 -24.5t31.5 -12.5q16 0 27 39q6 16 14 16l27 -6q8 -4 6 -19l-51 -317q-4 -18 -14 -19l-33 7q-12 0 -12 18q0 55 -14.5 112.5t-55.5 92.5l-100 -395q70 -53 117.5 -123t47.5 -189q0 -74 -24.5 -132t-67.5 -101t-101 -69.5t-128 -35.5l-47 -196 q-6 -25 -19 -21l-43 13q-12 2 -6 28l43 170q-45 0 -92 10l-51 -206q-4 -16 -16 -13l-43 11q-12 2 -7 26l52 203q-37 16 -65 32.5t-48 33.5q-29 23 -47 22q-10 0 -20.5 -9t-30.5 -44q-12 -18 -23 -10l-18 10q-10 4 -4 18zM408 154q25 -10 48 -15.5t40 -7.5l96 371l-76 69z M459 1006q0 -76 61 -132l76 289q-70 -12 -103.5 -58t-33.5 -99zM569 143q55 12 97.5 54.5t42.5 113.5q0 41 -16.5 71t-45.5 60zM575 819l76 -61l101 391q-33 18 -84 22z" />
<glyph unicode="%" horiz-adv-x="1536" d="M123 752q0 92 29.5 192t86 184t139.5 138.5t189 54.5q119 0 168 -60.5t49 -152.5q0 -102 -29.5 -207.5t-86 -191.5t-137 -140.5t-183.5 -54.5q-63 0 -106 19.5t-70 52t-38 76t-11 90.5zM274 670q0 -37 16.5 -62.5t47.5 -25.5q33 0 67.5 35.5t67.5 92t61.5 125t51 133 t35 118t12.5 79.5q0 43 -13.5 62.5t-50.5 23.5q-33 0 -67.5 -33.5t-67.5 -88t-61.5 -121t-51 -131t-35 -120.5t-12.5 -87zM352 27q0 10 10 24l828 1262q6 8 18 8q4 0 9 -2l8 -4l53 -33q10 -4 10 -12q0 -12 -8 -23l-827 -1261q-10 -16 -21 -17q-4 0 -8 2l-8 4l-54 37l-7 7 q-3 4 -3 8zM858 223q0 92 30 192.5t86 184.5t139 138.5t190 54.5q119 0 168 -60.5t49 -152.5q0 -102 -30 -208t-86 -192t-137 -140t-184 -54q-63 0 -106 19.5t-69.5 52t-38 75.5t-11.5 90zM1010 141q0 -37 16 -62.5t47 -25.5q33 0 68 36t67.5 92.5t61 125t51 133t35 117.5 t12.5 80q0 43 -13.5 62.5t-49.5 23.5q-33 0 -68 -34t-67.5 -88t-61.5 -120.5t-51.5 -131t-34.5 -121t-12 -87.5z" />
<glyph unicode="&#x26;" d="M154 483q0 92 27.5 164t67.5 124t84 85t75 47q-41 53 -67 113.5t-26 130.5q0 57 21.5 110.5t62.5 94.5t101.5 65.5t138.5 24.5q100 0 166.5 -52.5t66.5 -162.5q0 -37 -12 -63.5t-29.5 -44t-37 -27t-31.5 -9.5t-6 37q4 27 -5.5 50.5t-27.5 42t-46 28.5t-61 10 q-29 0 -58.5 -12t-54 -34.5t-41 -58.5t-16.5 -81q0 -29 5.5 -68t27.5 -67q20 4 52 17.5t81 13.5q45 0 76 -16.5t31 -67.5q0 -47 -22.5 -73t-78.5 -26q-37 0 -77.5 19.5t-69.5 38.5q-10 12 -19.5 15t-27.5 -11q-45 -35 -73.5 -106.5t-28.5 -149.5q0 -188 148 -293t429 -105 q141 0 247.5 31t179.5 83t110 122t37 145q0 45 -18.5 90t-54.5 81t-90.5 58.5t-125.5 22.5q-68 0 -109 -20.5t-63.5 -48t-29.5 -59.5t-7 -52t7 -39.5t18.5 -35t22.5 -25t17 -9.5q8 0 15.5 9.5t3.5 21.5q-4 14 0 33.5t16 37t29.5 30t42.5 12.5q68 0 97.5 -29t29.5 -74 q0 -51 -33 -92t-129 -41q-41 0 -82 15.5t-72.5 46t-51 78t-19.5 112.5q0 61 24.5 116.5t70.5 98.5t111.5 67.5t147.5 24.5q37 0 67.5 -2t63.5 -5t70 -5t86 -2q47 0 90 11.5t74.5 34t50 56t18.5 78.5q0 20 -10 43t-27.5 41.5t-38 30.5t-40.5 12t-23.5 -15t0.5 -30 q4 -16 1 -35.5t-14.5 -38t-32 -31t-50.5 -12.5q-49 0 -78 31t-29 72q0 61 50.5 100t111.5 39q68 0 119 -18.5t85 -49t50 -71.5t16 -86q0 -160 -86 -247t-227 -110q-35 -6 -37 -20t8 -31q20 -31 37 -85t17 -140q0 -131 -54.5 -234.5t-147.5 -175t-220 -109.5t-273 -38 q-213 0 -351 53t-219 133t-112.5 172t-31.5 170z" />
<glyph unicode="'" horiz-adv-x="286" d="M254 918q8 39 18.5 102t21.5 127.5t21.5 119t16.5 76.5q12 37 45 48.5t76 11.5q82 0 82 -70q0 -16 -21.5 -59t-54.5 -103.5t-72 -130t-72 -139.5z" />
<glyph unicode="(" horiz-adv-x="614" d="M121 141q0 231 62.5 438t175 388.5t266 337t338.5 284.5q12 10 20 6t18 -20t8.5 -24.5t-18.5 -24.5q-131 -117 -252 -274.5t-213 -346t-147 -403.5t-55 -445q0 -72 1 -131t4 -114.5t7 -112.5t12 -127q2 -12 -4 -17.5t-25 -11.5q-20 -8 -27 -6t-11 12q-29 49 -57.5 118 t-51 148t-37 162.5t-14.5 163.5z" />
<glyph unicode=")" horiz-adv-x="614" d="M-319.5 -416q2.5 8 18.5 25q131 117 252 274.5t213 346t147.5 402.5t55.5 445q0 72 -1 131.5t-4.5 114.5t-7.5 112.5t-12 127.5q-2 12 4 17t25 11q20 8 27.5 6t11.5 -12q29 -49 57.5 -117.5t51 -147.5t36.5 -163t14 -164q0 -231 -62.5 -438t-175 -388t-266 -337 t-337.5 -285q-12 -10 -20.5 -6t-18.5 21q-11 16 -8.5 24z" />
<glyph unicode="*" horiz-adv-x="614" d="M166 992.5q12 29.5 33 39.5q12 6 41.5 12.5t66.5 12.5t75 13t69 15v9q-63 10 -121 17t-86 17q-23 8 -33 38t12 73q23 41 55.5 49t49.5 -8q23 -20 57.5 -70.5t79.5 -97.5l10 6q-6 31 -13 65t-14.5 64.5t-12.5 55t-3 36.5q4 23 27.5 43.5t72.5 20.5q45 0 63.5 -15.5 t18.5 -35.5q0 -14 -13 -42t-32.5 -62t-40 -68.5t-34.5 -63.5l6 -4q27 20 54.5 47t52 52.5t46 45t37.5 25.5q29 10 52.5 -2t33.5 -41q12 -37 2 -70.5t-51 -44.5q-37 -10 -98.5 -14t-122.5 -14v-9q59 -16 119.5 -22t95.5 -25q29 -16 32 -44.5t-22 -59.5q-29 -35 -62.5 -42 t-58.5 15q-25 23 -52.5 69t-59.5 87l-13 -2q2 -27 8.5 -60.5t14.5 -66.5t13 -59.5t3 -36.5q-4 -23 -24.5 -45.5t-75.5 -22.5q-47 0 -63.5 18.5t-12.5 47.5q2 14 16.5 41.5t33 60.5t38 65.5t29.5 57.5l-8 4q-49 -47 -91 -96t-90 -82q-23 -16 -52 -4t-44 35q-26 43 -14 72.5z " />
<glyph unicode="+" horiz-adv-x="1024" d="M129 422v147h326v342h157v-342h326v-147h-326v-350h-157v350h-326z" />
<glyph unicode="," horiz-adv-x="512" d="M-10 -283q-4 16 4 24.5t20 12.5q20 6 52 22.5t61 41t49.5 56.5t20.5 69q0 41 -13.5 63.5t-42.5 50.5q-4 4 -14 13.5t-21.5 22.5t-19.5 29.5t-8 37.5q0 49 26.5 92t73.5 43q57 0 95 -26.5t60.5 -64.5t31 -82t8.5 -77q0 -100 -49.5 -166.5t-111.5 -106.5t-119.5 -57.5 t-74.5 -17.5q-10 0 -17 1t-11 19z" />
<glyph unicode="-" horiz-adv-x="847" d="M125 444v113q0 20 18 21h660q18 0 18 -17v-112q0 -18 -18 -19h-662q-16 0 -16 14z" />
<glyph unicode="." horiz-adv-x="512" d="M57 129q0 25 9.5 51.5t28 47t45 33.5t63.5 13q41 0 69.5 -14t47 -36.5t26.5 -49.5t8 -51q0 -59 -40 -101t-111 -42q-63 0 -104.5 40.5t-41.5 108.5z" />
<glyph unicode="/" horiz-adv-x="675" d="M-109 16q-14 12 0 31l979 1348q12 18 29 10l70 -45q18 -12 4 -33l-983 -1350q-16 -23 -33 -8z" />
<glyph unicode="0" horiz-adv-x="1024" d="M96 373q0 100 18.5 210.5t55.5 215t91 200t125 167t158 113.5t189 42q82 0 140.5 -26.5t93 -73.5t51 -114t16.5 -146q0 -113 -19.5 -231t-56 -228.5t-91 -207.5t-123 -169t-153.5 -114t-181 -42q-88 0 -148.5 32t-97.5 87t-52.5 129t-15.5 156zM301 213q0 -63 21.5 -105 t80.5 -42q47 0 98.5 61t98.5 157.5t89 214t73 230.5t49 207t18 143q0 72 -18 106t-76 38q-49 0 -101 -58.5t-100.5 -150.5t-90.5 -207t-73.5 -227.5t-50 -210t-18.5 -156.5z" />
<glyph unicode="1" horiz-adv-x="1024" d="M291 18l250 824q27 94 39 126.5t12 47.5q0 10 -8.5 19t-24.5 9q-14 0 -76 -16l-127 -37q-10 -2 -16 6l-18 37q-8 14 6 21l503 235q29 14 50.5 22.5t40.5 8.5q16 0 23 -10.5t7 -20.5q0 -8 -2 -21.5t-6 -23.5q-2 -6 -21.5 -61.5t-46 -129t-53 -150.5t-41.5 -124l-98 -303 q-2 -8 -13.5 -42t-26.5 -82t-32.5 -103t-33 -104.5t-25.5 -84t-12 -43.5q-4 -18 -44 -25t-87.5 -6t-85 10t-33.5 21z" />
<glyph unicode="2" horiz-adv-x="1024" d="M-66 25q0 27 33 49q72 49 155 112.5t166 135t159.5 149.5t136 159t95.5 161.5t38 158.5q0 33 -9.5 68t-29 63.5t-52 46t-79.5 17.5q-45 0 -85 -18.5t-74 -46t-58.5 -58.5t-38.5 -53q-16 -27 -25 -23l-43 21q-8 8 0 24q16 43 53 99.5t93.5 107.5t132.5 87t168 36 q152 0 233.5 -88t81.5 -225q0 -86 -41 -172t-106.5 -165t-145.5 -149.5t-158.5 -130t-147.5 -105.5t-110 -73v-23l480 -2q43 0 55 -13t4 -38.5t-31.5 -60.5t-54.5 -78l-592 2q-35 0 -60.5 -1t-47.5 -1q-23 -2 -38.5 -3t-25.5 -1q-31 0 -31 31z" />
<glyph unicode="3" horiz-adv-x="1024" d="M-14 197q0 18 5 37.5t15 36t27.5 27.5t42.5 11q39 0 61.5 -15t33.5 -36.5t13 -45.5t0 -40q-4 -20 4.5 -43t25.5 -41t42 -30.5t55 -12.5q63 0 120.5 28.5t102 81t70 125t25.5 160.5q0 72 -40 139.5t-132 92.5q-29 8 -39 18t-10 23q0 16 11 29.5t34 15.5q76 4 132 26.5 t94 57.5t57.5 80t19.5 94q0 20 -8.5 44.5t-27 46t-49 36t-75.5 14.5q-43 0 -82 -13.5t-70.5 -32.5t-55 -40.5t-34.5 -38.5q-4 -6 -10 -12t-16 0l-33 22q-10 6 6 31q18 31 53 73t86.5 81t119 66.5t151.5 27.5q80 0 135 -19.5t88 -51t47 -71.5t14 -79q0 -59 -24.5 -113.5 t-66.5 -101.5t-96 -85t-114 -63q98 -31 148.5 -106.5t50.5 -165.5q0 -109 -48 -199t-128 -156.5t-184.5 -103.5t-217.5 -37q-84 0 -145 20.5t-102 53.5t-61.5 73t-20.5 81z" />
<glyph unicode="4" horiz-adv-x="1024" d="M6 381q0 18 16.5 36.5t32.5 33.5l860 788q35 33 68 57.5t64 24.5q23 0 28.5 -23.5t-2.5 -48.5l-246 -739h164q12 0 14.5 -7t-1.5 -16l-41 -118q-10 -25 -31 -25h-158l-98 -303q-10 -27 -17.5 -34t-23.5 -7h-209q-10 0 -13 10t7 39l110 295h-469q-55 0 -55 37zM254 517 q2 -7 18 -7h310l147 405q10 27 -4 33t-37 -16l-420 -391q-16 -17 -14 -24z" />
<glyph unicode="5" horiz-adv-x="1024" d="M18 90q0 35 16.5 57.5t45.5 22.5q53 0 100 -53q20 -23 55 -34t95 -11q63 0 119.5 29.5t98.5 77.5t65.5 107.5t23.5 119.5q0 78 -24.5 125t-67.5 75q-35 23 -94.5 38t-118.5 15q-39 0 -56.5 2.5t-23.5 6.5q-16 16 -8 39l192 565q4 12 12.5 15t18.5 3h539q49 0 68.5 -3 t17.5 -22.5t-26 -60.5t-60 -117h-533l-74 -208q61 -2 138 -12.5t145 -43.5q119 -57 161 -147t42 -197q-4 -78 -44 -167t-117 -165.5t-191.5 -127t-268.5 -50.5q-43 0 -86 6.5t-79 19.5t-58.5 36.5t-22.5 58.5z" />
<glyph unicode="6" horiz-adv-x="1024" d="M88 354q0 166 72.5 317.5t187.5 277.5t256 219.5t281 140.5q39 12 59 12q12 0 21.5 -12.5t9.5 -30.5q0 -33 -29 -45q-184 -86 -305 -206t-195 -261l13 -12q41 23 95 38t126 15q59 0 111.5 -20.5t90.5 -58.5t59.5 -91t21.5 -119q0 -111 -39 -210t-106.5 -174t-160 -120 t-198.5 -45q-186 0 -278.5 105.5t-92.5 279.5zM328 258q0 -45 6 -83t21.5 -65.5t40 -44t63.5 -16.5q61 0 107 52.5t76 130t44 165.5t12 160q-2 57 -34.5 104.5t-94.5 47.5q-57 0 -94 -20.5t-53 -45.5q-57 -96 -75.5 -200.5t-18.5 -184.5z" />
<glyph unicode="7" horiz-adv-x="1024" d="M268 70q0 33 18.5 72.5t41.5 68.5q14 20 42.5 60t66.5 92.5t81 114t88 126.5q23 35 53.5 81t61.5 95l61 99l57 90q26 41 44 70.5t24 41.5h-612q-10 0 -13 8.5t1 31t14 63.5t25 106h759q33 0 33 -20q0 -12 -7 -26.5t-13 -24.5q-4 -6 -27 -44t-55.5 -94.5t-72.5 -128 t-79 -147.5q-55 -104 -107.5 -207.5t-96.5 -196t-78.5 -167t-53.5 -119.5q-29 -70 -62.5 -108t-90.5 -38q-55 0 -79 33t-24 68z" />
<glyph unicode="8" horiz-adv-x="1024" d="M78 250q0 82 40 143.5t97 105.5t119 74l102 52q-31 31 -65.5 66.5t-63 76.5t-48 86t-19.5 96q0 61 25.5 127t83 120t148.5 89t220 35q80 0 142.5 -19.5t105.5 -54.5t64.5 -82t21.5 -102q0 -78 -42 -139.5t-98.5 -108.5t-116 -78.5t-94.5 -46.5q39 -35 73 -70.5 t60.5 -76.5t42 -87t15.5 -98q0 -80 -32 -150.5t-90 -123.5t-143 -84t-190 -31q-113 0 -182.5 31t-108.5 75t-53 92t-14 83zM287 246q0 -90 46 -146.5t124 -56.5q66 0 105.5 25.5t60 61.5t26.5 72t6 58q0 51 -11 92t-33.5 77t-55.5 69.5t-74 72.5q-82 -35 -138 -113.5 t-56 -211.5zM467 1028q0 -37 14.5 -71.5t39 -68.5t58 -70t72.5 -75q82 43 140.5 118t58.5 192q0 31 -9.5 64.5t-31 61t-56 46t-85.5 18.5q-102 0 -151.5 -62.5t-49.5 -152.5z" />
<glyph unicode="9" horiz-adv-x="1024" d="M92 6q0 14 6 25.5t23 19.5q102 51 180 107.5t137.5 114t104.5 115.5t80 114l-13 12q-29 -14 -59 -22q-41 -10 -80 -11q-90 0 -149.5 31t-95.5 78t-50 102.5t-14 102.5q0 88 33.5 181t98 170t160 126t216.5 49q182 0 268 -95.5t86 -254.5q0 -176 -78 -338t-200.5 -294 t-275.5 -226.5t-302 -135.5q-10 -4 -21.5 -6t-25.5 -2t-21.5 11.5t-7.5 25.5zM422 768q0 -31 6 -65.5t19.5 -62.5t35 -46.5t54.5 -18.5q59 0 95 23t64 82q18 37 31.5 81t24 91t15.5 93t5 85q0 33 -4 70t-15.5 68.5t-34 52t-59.5 20.5q-61 0 -106 -53t-73.5 -128t-43 -156 t-14.5 -136z" />
<glyph unicode=":" horiz-adv-x="512" d="M27 123q0 25 9 49.5t26.5 44t44 32.5t61.5 13q43 0 71.5 -14.5t46 -36t25.5 -47t8 -47.5q0 -55 -40.5 -96t-108.5 -41q-59 0 -101 40t-42 103zM223 737q0 23 9.5 47.5t26.5 44t44 32.5t62 13q43 0 71.5 -14t46 -35.5t25.5 -46t8 -47.5q0 -57 -41 -98t-108 -41 q-59 0 -101.5 39.5t-42.5 105.5z" />
<glyph unicode=";" horiz-adv-x="512" d="M-31 -283q-4 16 4.5 24.5t20.5 12.5q20 6 52 22.5t60.5 41t49 56.5t20.5 69q0 41 -13 63.5t-42 50.5q-4 4 -14.5 13.5t-21.5 22.5t-19.5 29.5t-8.5 37.5q0 49 27 92t74 43q55 0 92 -27.5t59.5 -67.5t32.5 -82t10 -73q0 -100 -48 -166.5t-109.5 -106.5t-119 -57.5 t-77.5 -17.5q-10 0 -17.5 1t-11.5 19zM201 733q0 25 9 49.5t26.5 45t44 33.5t61.5 13q39 0 67.5 -14t46 -35.5t25.5 -48t8 -49.5q0 -55 -39.5 -96t-107.5 -41q-59 0 -100 40t-41 103z" />
<glyph unicode="&#x3c;" horiz-adv-x="1024" d="M211 446v93l629 372v-157l-447 -252v-8l447 -250v-172z" />
<glyph unicode="=" horiz-adv-x="1024" d="M147 281v147h814v-147h-814zM147 602v148h814v-148h-814z" />
<glyph unicode="&#x3e;" horiz-adv-x="1024" d="M246 72v157l446 252v8l-446 261v161l628 -374v-93z" />
<glyph unicode="?" horiz-adv-x="870" d="M229 104q0 49 33 92.5t94 43.5q59 0 94 -39t35 -97q0 -20 -8 -41.5t-24.5 -40t-39 -30.5t-53.5 -12q-47 0 -89 30.5t-42 93.5zM244 524q0 74 34.5 133.5t84 105.5t102.5 76.5t88 49.5q53 27 98 51.5t77 55t50.5 70.5t18.5 97q0 20 -8.5 47t-28 51.5t-51 42t-80.5 17.5 q-98 0 -164 -48t-66 -128q0 -47 19.5 -63.5t36.5 -16.5q25 0 32 18q-4 10 -7 21.5t-3 28.5q0 41 27.5 72.5t83.5 31.5q45 0 68.5 -28.5t23.5 -71.5q0 -41 -16.5 -73t-44 -53.5t-61.5 -31.5t-69 -10t-68.5 10t-60 30.5t-43 53.5t-16.5 78q0 43 22.5 89t65.5 85t107.5 63.5 t148.5 24.5q109 0 175.5 -32t103.5 -75t50 -89t13 -72q0 -102 -30.5 -184.5t-84 -144t-127 -104.5t-161.5 -67q-106 -31 -171 -65.5t-65 -80.5q0 -35 23.5 -54t95.5 -19q74 0 121 28.5t59 40.5q10 10 19 -2l20 -22q8 -8 4 -17q-10 -16 -30.5 -38.5t-51 -45t-68.5 -38 t-79 -15.5q-90 0 -153.5 51t-63.5 166z" />
<glyph unicode="@" horiz-adv-x="1626" d="M156 512q0 115 34.5 225.5t96 210t147.5 183t188.5 144t218 94.5t238.5 34q145 0 253 -37t177.5 -104.5t103.5 -162.5t34 -214q0 -96 -38 -192.5t-112 -175.5t-181.5 -128t-246.5 -49q-61 0 -87 19.5t-26 43.5q0 23 11.5 71t33.5 108l-16 8q-16 -23 -49 -65t-76 -83 t-93 -71.5t-105 -30.5q-59 0 -98.5 35t-35.5 117q0 55 22.5 121.5t61.5 133t90.5 128t106.5 108.5t111.5 75.5t107.5 28.5q57 0 83 -15t48 -42l17 23q10 12 16 15t22 3h115q10 0 13.5 -7t-1.5 -13q-8 -18 -27.5 -61.5t-41 -93.5t-41 -98t-27.5 -75q-6 -23 -17 -57.5 t-22.5 -73.5t-19.5 -74t-8 -53q-2 -20 14 -29.5t35 -9.5q29 0 78 28.5t96 87t82 148.5t35 215q0 207 -111 311.5t-309 104.5q-147 0 -276.5 -70.5t-224.5 -182.5t-150.5 -251t-55.5 -276q0 -115 38 -205t103.5 -152.5t154.5 -95.5t192 -33q76 0 162.5 11.5t166.5 56.5 q20 12 27 2l16 -41q4 -10 -14 -23q-29 -18 -72 -34.5t-95 -28.5t-110.5 -20.5t-115.5 -8.5q-158 0 -279 40t-202.5 113t-123.5 172t-42 218zM735 541q0 -72 58 -72q14 0 51 39t78 91t75.5 102.5t46.5 74.5q27 53 33 90t6 62q0 37 -12 63.5t-51 26.5q-35 0 -68.5 -27.5 t-65.5 -70.5t-59.5 -96.5t-48 -106.5t-32 -100t-11.5 -76z" />
<glyph unicode="A" horiz-adv-x="2074" d="M-2 319q0 82 25.5 157t73.5 132.5t117 91t155 33.5q47 0 77.5 -13t49 -31.5t25.5 -38t7 -32.5q0 -57 -33.5 -83.5t-78.5 -26.5q-37 0 -57.5 17.5t-36.5 33.5q-27 27 -46.5 33t-37.5 6q-16 0 -42 -14.5t-50.5 -42t-43 -69.5t-18.5 -101q0 -98 39 -161t98.5 -98.5t129 -49 t128.5 -13.5q131 0 246 48t221.5 133t207.5 199t204 247q80 102 152.5 194.5t136 169t114.5 133t86 87.5q37 33 76 59.5t85 44.5t101.5 28.5t126.5 10.5q117 0 191 -35t74 -92q0 -18 -16.5 -32.5t-41.5 -14.5q-31 0 -49 14t-29 31q-10 14 -32.5 27.5t-44.5 13.5 q-31 0 -50.5 -26.5t-44.5 -102.5l-301 -940q-25 -74 -24 -115q0 -61 -12.5 -89t-37 -37t-61.5 -7t-86 2q-70 0 -97.5 11.5t-29.5 34t13.5 58t31.5 82.5l109 318h-355q-14 -18 -42.5 -57t-66.5 -88.5t-80 -101.5t-83 -95q-82 -88 -161 -146.5t-157.5 -94.5t-155.5 -50 t-155 -14q-80 0 -159.5 27.5t-142 84t-102.5 143t-40 207.5zM1405 582h321l209 602q4 12 5 20q0 7 -4 11q-7 9 -13 10q-6 0 -20.5 -9.5t-30.5 -23.5q-20 -18 -54 -57t-76 -92.5t-88 -114.5l-92 -123q-46 -61 -87 -119.5t-70 -103.5z" />
<glyph unicode="B" horiz-adv-x="1734" d="M92 868q0 123 72 238t215 182q70 33 148.5 49.5t169.5 24.5t195.5 9t225.5 1q68 0 146.5 -3t155.5 -11t144.5 -23.5t110.5 -38.5q49 -27 78 -57.5t44 -61t19.5 -60.5t4.5 -54q0 -53 -26 -108.5t-76 -107.5t-126.5 -96t-179.5 -71v-4q51 -12 100.5 -39t88 -67t63.5 -92 t25 -113q0 -39 -11.5 -83t-36 -86t-64.5 -79t-97 -64q-29 -12 -62 -23.5t-79 -19.5t-112.5 -12t-162.5 -4q-66 0 -140.5 3t-187.5 3q-12 0 -33.5 2t-37.5 20q-20 21 -20 66q0 39 22 107l276 1015q10 41 -5 56.5t-75 15.5q-127 0 -248.5 -45t-217 -112.5t-154 -147.5 t-58.5 -150q0 -33 12.5 -55t30 -35.5t39 -19.5t39.5 -6q23 0 41.5 15t28.5 36q16 29 44 45t60 16q41 0 70 -27.5t29 -86.5q0 -35 -15.5 -60.5t-40 -42t-55.5 -26t-61 -9.5q-78 0 -136.5 23.5t-98.5 64.5t-60.5 94.5t-20.5 114.5zM934 154q-2 -8 -2 -15q0 -26 29 -50 q37 -30 114 -30q49 0 105.5 15.5t104.5 53.5t79 101.5t31 159.5q0 70 -31 120t-78 84t-104.5 50t-110.5 19zM1085 731q35 -8 56.5 -9t62.5 -1q94 0 158.5 31.5t102.5 79t54.5 101.5t16.5 101q0 72 -25.5 121t-60.5 80t-73 45t-64 14q-23 0 -40.5 -1t-39.5 -7z" />
<glyph unicode="C" horiz-adv-x="1150" d="M98 61q0 115 21.5 247t66.5 266.5t110.5 265.5t156.5 245q86 111 160.5 173.5t137 95t110.5 41t79 8.5q82 0 149.5 -30t116.5 -80t76 -114.5t27 -134.5q0 -29 -8.5 -57.5t-23.5 -51t-37.5 -37.5t-51.5 -15q-47 0 -82 39t-35 100q0 37 9.5 70.5t9.5 52.5q0 82 -32 134 t-126 52q-35 0 -75 -24.5t-81 -70.5t-80 -109.5t-71 -141.5q-51 -119 -95.5 -255t-77 -266t-51 -244t-18.5 -187q0 -211 55.5 -311.5t208.5 -100.5q51 0 99.5 20.5t88 51.5t69.5 67.5t46 71.5t28.5 75t16.5 70q25 57 62 58q33 0 41 -19.5t8 -48.5q0 -23 -17.5 -65.5t-49 -96 t-80 -108.5t-111 -101.5t-137 -75t-162.5 -28.5q-76 0 -156 26.5t-145.5 92t-107.5 175t-42 275.5z" />
<glyph unicode="D" horiz-adv-x="2088" d="M113 866q0 133 67.5 246t196.5 174q68 33 142.5 50.5t165.5 25.5t203.5 9t254.5 1q100 0 209.5 -5t212 -21.5t191.5 -47t149 -84.5q90 -78 136 -172t46 -241q0 -135 -54.5 -271.5t-170.5 -253.5q-135 -133 -348.5 -207.5t-530.5 -74.5q-59 0 -118.5 3t-119.5 3 q-29 0 -45 3t-20 24q-1 7 -1 16q0 20 5 51q8 47 29 135l252 988q10 35 -17.5 48t-95.5 13q-111 0 -225.5 -47t-207.5 -115.5t-152.5 -147.5t-59.5 -143q0 -35 12 -56t29.5 -35.5t38 -19.5t37.5 -5q29 0 45 10t24 26q14 29 40 52.5t77 23.5q37 0 61.5 -28.5t24.5 -75.5 q0 -59 -55.5 -101.5t-143.5 -42.5q-53 0 -103 17.5t-91 52.5t-65.5 90t-24.5 133zM997 182q-7 -29 -7 -50q0 -28 12 -42q22 -25 65 -24q63 0 131 15t130.5 42t118.5 63.5t99 77.5q129 125 187.5 267.5t60.5 302.5q0 106 -32.5 191t-93 144.5t-143.5 90t-186 30.5 q-41 0 -56 -10t-26 -51z" />
<glyph unicode="E" horiz-adv-x="1105" d="M74 334q0 74 27.5 136t73.5 112.5t105.5 90.5t122.5 70q-131 96 -131 277q0 82 38 155.5t105.5 129t163 87t209.5 31.5q174 0 262.5 -87t88.5 -232q0 -61 -19.5 -88t-54.5 -27q-41 0 -44 25.5t15 58.5q12 23 4 53.5t-37.5 58t-76.5 47t-111 19.5q-78 0 -134 -28.5 t-92 -72.5t-53.5 -96.5t-17.5 -97.5q0 -35 5 -72.5t36 -72.5q43 23 96 35q29 8 57.5 11t55.5 3q98 0 142 -40t44 -95t-52 -98t-152 -43q-27 0 -60 6t-66.5 16t-65.5 24.5t-58 33.5q-10 -8 -32 -29t-44.5 -57.5t-38.5 -93t-16 -136.5q0 -37 16 -74.5t47 -70.5t77 -53.5 t107 -20.5q76 0 138.5 22.5t109.5 58.5t80 80t47 87q6 16 14.5 25.5t26.5 9.5q14 0 30.5 -20.5t8.5 -39.5q-20 -57 -55 -109.5t-70 -92.5q-94 -102 -207.5 -141.5t-226.5 -39.5q-102 0 -184 27t-138.5 75t-86 115.5t-29.5 147.5zM586 733q35 -29 73.5 -50t71.5 -21 q47 0 68.5 18t21.5 43q0 29 -25.5 44t-62.5 15q-23 0 -63.5 -12t-83.5 -37z" />
<glyph unicode="F" horiz-adv-x="1413" d="M-125 -346q4 49 33 77.5t61 28.5q102 0 115 -118q4 -33 18.5 -53.5t42.5 -24.5q39 0 84 34.5t70 98.5q31 76 74 194.5t96 305.5l291 1001q10 33 -16.5 41t-112.5 8q-129 0 -222.5 -19.5t-152.5 -51t-88 -74.5t-29 -90t21.5 -65.5t42.5 -18.5q16 0 46 8t48 8 q31 0 57.5 -26.5t26.5 -67.5q0 -45 -34 -82t-93 -37q-23 0 -55.5 10.5t-62.5 37t-51.5 73.5t-21.5 121q0 37 8.5 81t29 89t56.5 86t91 76q43 27 91 45t108.5 30.5t134 17.5t168.5 5q53 0 124.5 -5t145.5 -12.5t143.5 -16.5t118.5 -17q82 -14 163 -27.5t140 -13.5q49 0 85 13 t36 69q0 10 -6 23.5t-12 27.5q-23 49 -23 72q0 20 16.5 47.5t59.5 27.5q59 0 82.5 -37.5t23.5 -76.5q0 -31 -17.5 -82.5t-58 -100.5t-109.5 -84.5t-171 -35.5q-74 0 -147.5 7t-124.5 11l-183 18l-108 -403l377 -4l34 2q-33 -66 -51 -104.5t-35.5 -59t-39 -26t-62.5 -3.5 t-107.5 7.5t-171.5 7.5l-110 -355q-25 -82 -48.5 -148.5t-53 -129t-68.5 -129t-96 -148.5q-43 -63 -95.5 -106t-104.5 -69.5t-101.5 -39t-88.5 -12.5q-47 0 -88 9t-73.5 29.5t-51 51.5t-18.5 74z" />
<glyph unicode="G" horiz-adv-x="1464" d="M113 522q0 98 21.5 189.5t58 172.5t87 151.5t107.5 127.5q43 43 99.5 86t129 77t165.5 55.5t210 21.5q82 0 144.5 -11.5t108.5 -27.5t75 -33.5t45 -30.5q10 -8 31.5 -32.5t37 -70.5t15.5 -114.5t-35 -167.5q-4 -14 -20 -12l-41 4q-16 4 -15 21q4 28 5 57q0 38 -8 77 q-13 69 -53 124t-106.5 90t-162.5 35q-49 0 -99.5 -10.5t-101.5 -35t-103.5 -68.5t-105.5 -112q-90 -113 -140 -272.5t-50 -345.5q0 -115 30.5 -185.5t74.5 -111.5t94.5 -55.5t88.5 -14.5q86 0 145.5 30t97.5 76t56.5 100t22.5 102q1 12 1 22q0 42 -13 57q-16 18 -52 19h-65 q-20 0 -14 20l8 43q2 16 22 17q12 0 33 -1t57.5 -2t92 -2t137.5 -1q49 0 74.5 2t32.5 -13.5t-3 -58.5t-30 -131l-142 -551q-6 -27 -16 -59.5t-22.5 -67.5t-27 -66.5t-26.5 -54.5q-20 -41 -57 -84t-84 -77.5t-103.5 -58.5t-113.5 -24q-76 0 -128.5 16.5t-86 43t-49 61.5 t-15.5 72q0 68 32 106.5t93 38.5q31 0 50.5 -10t29.5 -24.5t13 -28.5t3 -23q0 -23 -5 -51.5t-13 -36.5q-12 -12 -12 -37q0 -27 21.5 -43t53.5 -16q74 0 117 58.5t72 164.5q18 74 46 201t87 328l-19 4q-10 -12 -35.5 -44t-72.5 -64t-119 -57.5t-172 -25.5q-227 0 -358 142.5 t-131 410.5z" />
<glyph unicode="H" horiz-adv-x="2058" d="M61 874q0 139 69 249t183 169q49 27 95.5 43.5t99.5 26.5t122.5 13t168.5 3q41 0 86 -3t98 -3q33 0 74 1t77.5 2t64.5 2t38 1q23 0 28 -15t-5 -38q-14 -29 -26.5 -63.5t-25.5 -71.5l-147 -453h610l78 256q31 98 71 192.5t87 176.5t98 147.5t104 106.5q84 63 155 89 t155 26q66 0 107.5 -22.5t41.5 -70.5q0 -37 -27.5 -68.5t-86.5 -31.5q-29 0 -49.5 18.5t-37.5 38.5q-16 23 -35.5 31t-54.5 8q-27 0 -50 -28.5t-42.5 -71.5t-35 -92t-27.5 -90l-334 -1135q-10 -31 -17.5 -68.5t-26 -71.5t-55.5 -57q-35 -21 -95 -20h-11q-53 2 -81.5 3 t-35.5 22q-2 6 -1 15q0 21 10 55q14 50 45 151l127 407h-613l-147 -444q-14 -43 -22.5 -82t-27 -67.5t-56.5 -45.5q-34 -15 -95 -14h-16q-35 1 -59 1h-20q-31 -1 -31 26q0 19 12 56q15 46 46 142l308 946q9 25 8 44q0 31 -23 45q-37 23 -114 22q-117 0 -231.5 -41 t-207 -102.5t-148.5 -135t-56 -137.5q0 -37 13 -63.5t33.5 -43t45 -24.5t45.5 -8q31 0 48 15.5t28 35.5q16 31 37.5 47.5t56.5 16.5q59 0 86 -31q23 -27 23 -61q0 -5 -1 -11q2 -59 -54 -102t-150 -43q-61 0 -115.5 16.5t-96.5 51t-67 87.5t-25 125z" />
<glyph unicode="I" horiz-adv-x="788" d="M150 18q0 18 15 57q17 46 46 146l256 942q10 37 17.5 76t25.5 68.5t54 48.5q32 17 89 16h13q32 -1 55.5 -1t39.5 1h7q25 0 32 -13q2 -5 2 -13q0 -17 -10 -47q-15 -44 -47 -142l-256 -944q-10 -37 -16 -76t-24.5 -69.5t-57.5 -50.5q-35 -18 -99 -17h-13q-27 1 -48 1 q-31 0 -49 -2q-5 0 -8 -1q-24 1 -24 20z" />
<glyph unicode="J" horiz-adv-x="1228" d="M-53 -391q0 66 33.5 98.5t87.5 32.5q51 0 79.5 -44t32.5 -108q2 -16 16.5 -39.5t55.5 -23.5q59 0 118.5 26.5t94.5 77.5q39 55 69.5 145.5t61.5 202t64.5 240.5t76.5 262q14 45 35 97.5t62 150.5q4 12 19 51t38.5 90.5t55.5 109.5t67 114l-4 6q-18 -8 -73.5 -25.5 t-129.5 -17.5q-125 0 -213 34.5t-148 114.5q-37 47 -65.5 70.5t-63.5 23.5t-60.5 -14t-41.5 -34.5t-25.5 -44t-9.5 -42.5q0 -59 68 -69q53 -6 92 -25.5t39 -79.5q0 -41 -32 -69.5t-91 -28.5t-107.5 60.5t-48.5 172.5q0 72 26 123t58 78q51 43 117 60.5t145 17.5 q49 0 91.5 -7t83.5 -26.5t85 -56.5t101 -94q45 -47 80 -55.5t57 -8.5q37 0 109 19q16 31 46.5 66.5t71.5 67t89.5 53t99.5 21.5q41 0 59.5 -20.5t18.5 -42.5q0 -37 -61.5 -88t-202.5 -92q-27 -84 -47.5 -179.5t-38 -187.5t-35 -177t-35.5 -146q-35 -115 -74 -236t-88 -234.5 t-111.5 -212t-144.5 -169.5q-74 -66 -171 -107t-241 -41q-47 0 -90 9.5t-76.5 28.5t-54 50t-20.5 72z" />
<glyph unicode="K" horiz-adv-x="1331" d="M146 17q0 14 14 44q16 37 39 117l278 989q8 33 16.5 71t27 68.5t52.5 49.5q31 17 85 16h12q33 -1 57 -1t40 1h9q24 0 29 -9q6 -11 -8.5 -47t-40.5 -112l-148 -493q59 25 130 84t145.5 132.5t150.5 153.5t148.5 145.5t137.5 106.5q61 39 111 39h5q45 -2 81.5 -2t43 -10 t-28.5 -38t-133 -85q-10 -6 -51 -39t-98.5 -77t-123 -96t-124 -98t-101.5 -80t-55 -42q51 -129 122.5 -286t151.5 -308.5t161 -281.5t151 -210q23 -25 52 -59.5t67 -66t82 -54t98 -22.5q29 0 56.5 12t47.5 32.5t30.5 46t4.5 50.5q-3 14 -3 27q0 26 11 51q16 37 49 37h7 q83 0 83 -97q0 -37 -21.5 -79.5t-65.5 -79.5t-111.5 -60.5t-157.5 -23.5q-172 0 -312.5 72.5t-269.5 246.5q-43 57 -98 157.5t-113.5 223.5t-115 259t-101.5 270l-67 -46l-111 -407q-10 -35 -17 -72t-25.5 -68.5t-53.5 -51.5q-32 -18 -85 -17h-11q-48 1 -77 1h-25 q-33 -1 -33 16z" />
<glyph unicode="L" horiz-adv-x="1064" d="M-92 -63q0 39 23.5 70.5t57.5 56t73.5 43t72.5 28.5q29 16 61.5 51t59.5 78q18 31 32.5 76t32 125t44 207t69.5 321q23 98 75 174t121.5 128.5t152.5 80t167 27.5q131 0 189.5 -46t58.5 -106q0 -45 -27.5 -69.5t-60.5 -26.5q-45 0 -72.5 17.5t-42.5 60.5 q-12 37 -31.5 61.5t-58.5 24.5q-61 0 -96 -75t-70 -232q-49 -219 -91 -350.5t-75.5 -205t-62.5 -106.5t-53 -55q-23 -20 -51.5 -44t-57.5 -45.5t-53.5 -37.5t-38.5 -23l2 -8q18 8 75.5 19.5t137.5 11.5t159 -15.5t150 -78.5q76 -70 137.5 -148t115.5 -144.5t104.5 -109.5 t99.5 -43q70 0 70 39q0 12 -10.5 43t-10.5 56q0 43 26.5 75.5t63.5 32.5q59 0 89 -39t30 -80q0 -55 -23.5 -94t-63.5 -63.5t-90 -37t-101 -12.5q-115 0 -206 33t-168 83t-142.5 111.5t-126 118t-121 100.5t-125.5 62q-23 6 -53.5 6t-79.5 -4q-16 -25 -41 -57.5t-54.5 -62 t-61.5 -50t-63 -20.5q-29 0 -48 19.5t-19 48.5z" />
<glyph unicode="M" horiz-adv-x="3010" d="M-27 250q0 100 32 179t83 134t116.5 84t133.5 29q72 0 117 -41t45 -109q0 -41 -29 -72.5t-88 -31.5q-47 0 -68.5 25.5t-38.5 46.5q-23 29 -53 28q-29 0 -58.5 -16.5t-53 -50t-39 -82.5t-15.5 -113q0 -59 28 -118.5t80 -106.5t127 -76t171 -29q180 0 335.5 77t297.5 231 q80 86 151.5 209.5t130 250.5t101.5 244t69 191q16 47 9 58t-41 11q-47 0 -105 2q-29 1 -58.5 1t-60.5 -1q-61 -2 -124.5 -8t-125.5 -20q-84 -23 -138 -54.5t-54 -72.5q0 -18 11 -43t67 -33q61 -10 88.5 -39t27.5 -57q0 -68 -39.5 -96.5t-76.5 -28.5q-43 0 -74 24.5 t-51.5 61t-29.5 80t-9 81.5q0 80 39 149t110 118q66 45 154 67.5t204 31.5q104 8 235 8h29q148 -1 337 -1q35 0 46 -13t11 -36q0 -12 4 -78.5t9.5 -160t12.5 -201t13 -203.5t10 -166t7 -88q2 -23 14 -25t24 17l646 923q12 16 27.5 23.5t51.5 7.5h279q-37 -121 -81 -274.5 t-89 -313t-88 -312.5t-74 -275q-7 -24 -6 -41q0 -35 29 -35q70 0 94 -20.5t-1.5 -47t-103 -51.5t-215.5 -33q-7 -1 -14 0q-39 0 -58 20q-24 24 -26 42q-1 9 -1 19q0 23 6 51q9 42 24 96q68 254 137.5 502.5t140.5 492.5q8 27 1 30t-17 -8q-2 -2 -37 -52t-91 -129t-127 -180 t-144.5 -207.5t-145.5 -210t-130 -185.5t-96 -137.5t-44 -63.5q-35 -49 -72 -49q-33 0 -39 47q-2 8 -9 91t-18.5 204t-23.5 260t-21.5 260t-16.5 203t-7 90q0 23 -10.5 23t-18.5 -23q-14 -43 -36.5 -114.5t-54.5 -162t-72.5 -191.5t-90 -203.5t-108 -200t-123.5 -177.5 q-63 -78 -137 -144t-160 -114.5t-185.5 -76t-215.5 -27.5q-84 0 -169 31.5t-154 95t-112 158t-43 221.5z" />
<glyph unicode="N" horiz-adv-x="2058" d="M-127 213q0 45 12.5 79t33 57.5t45 34.5t46.5 11q47 0 78 -23.5t31 -82.5q0 -23 -10.5 -40.5t-23.5 -33.5t-26.5 -31.5t-19.5 -33.5q-10 -29 18.5 -55.5t120.5 -26.5q70 0 138.5 24.5t130 65.5t113.5 92t93 106q55 76 110.5 186.5t99.5 226.5t72 223.5t28 176.5 q0 35 -17.5 48.5t-52.5 13.5q-80 0 -167 -3t-181 -32q-66 -18 -115 -55t-49 -74q0 -18 12.5 -45t44.5 -35q61 -10 86 -35.5t25 -62.5q0 -41 -28.5 -69.5t-84.5 -28.5q-59 0 -101 56t-42 136q0 92 36 170t107 131q55 39 124 57.5t158 25.5q78 6 176 6h29q116 -1 265 -1 q33 0 46 -11t19 -36q16 -78 43 -171t60 -191.5t67.5 -195.5t70.5 -183t68.5 -156t59.5 -113q12 -20 17.5 -0.5t11.5 50.5q31 141 73.5 283.5t99 271.5t128 233t157.5 168q82 59 155 79.5t136 20.5q100 0 148.5 -45t48.5 -102q0 -47 -34 -78t-73 -31q-35 0 -57.5 18.5 t-38.5 41.5q-10 14 -32.5 25.5t-45.5 11.5q-29 0 -59.5 -8.5t-79.5 -39.5q-53 -35 -112.5 -95t-119 -164.5t-116.5 -259t-107 -378.5q-11 -51 -11 -86q0 -38 7 -68q6 -26 15.5 -42.5t17.5 -28.5q27 -45 69 -103.5t96 -120t118.5 -121.5t137.5 -107.5t151.5 -76t160.5 -28.5 q72 0 123 31t62 82q16 76 37.5 108.5t54.5 32.5q41 0 55 -28.5t14 -51.5q0 -20 -16 -59t-45 -68q-12 -14 -41 -39.5t-75 -51.5t-111.5 -44t-155.5 -18q-166 0 -299 54t-235.5 131t-176 161t-119.5 143q-86 115 -163.5 254t-143 290.5t-117 309.5t-88.5 309q-4 14 -11 13.5 t-11 -25.5q-35 -197 -89 -373t-126 -305q-53 -96 -118.5 -180t-144.5 -145.5t-171 -97.5t-197 -36q-61 0 -116.5 18.5t-96.5 54.5t-65.5 88t-24.5 120z" />
<glyph unicode="O" horiz-adv-x="1495" d="M156 569q0 162 52 312.5t151.5 266.5t241.5 185.5t325 69.5q125 0 230.5 -37t181 -111.5t117.5 -185.5t42 -258q0 -162 -57.5 -313.5t-159.5 -269t-245.5 -188.5t-317.5 -71q-86 0 -187.5 25.5t-187.5 103.5q-102 94 -144 215t-42 256zM408 414q0 -166 73.5 -254 t208.5 -88q102 0 197.5 79.5t169 210t119 297t45.5 342.5q0 145 -64.5 222t-177.5 77q-92 0 -167 -46t-122 -109q-59 -72 -111.5 -161t-90 -184t-59 -194.5t-21.5 -191.5z" />
<glyph unicode="P" horiz-adv-x="1695" d="M70 864q0 98 44 194.5t146 174.5q72 55 163 84t203.5 41t246 13t288.5 1h122q65 0 129.5 -7t128 -27.5t118.5 -61.5q63 -47 98 -114.5t35 -155.5q0 -74 -31.5 -153t-96.5 -143.5t-163 -106.5t-231 -42h-53q-31 0 -66 2t-68.5 7t-58.5 14l-98 -365q-6 -27 -15.5 -65.5 t-34 -73.5t-69.5 -58q-41 -22 -111 -22h-12q-49 2 -71 5q-23 3 -22 26q0 21 15 65q16 47 45 137l267 947q9 34 9 54t-9 28q-18 14 -70 14q-47 0 -101.5 -7t-109.5 -21.5t-109.5 -37t-99.5 -53.5q-43 -29 -90 -64.5t-85 -75.5t-62.5 -85t-24.5 -92q0 -63 39 -93t78 -30 q25 0 42 15.5t27 31.5q20 31 46 47t67 16q43 -2 68.5 -28.5t25.5 -71.5q0 -68 -54 -111t-143 -43q-55 0 -107 18.5t-93 54.5t-66.5 90t-25.5 128zM1051 694q-1 -5 -2 -9q0 -11 8 -18q10 -11 31.5 -18.5t51 -11.5t62.5 -4q115 0 182.5 52t101.5 118.5t43 127t9 77.5 q0 57 -19.5 108t-53 90t-81 61.5t-102.5 22.5q-27 0 -44 -3t-28 -25z" />
<glyph unicode="Q" horiz-adv-x="1413" d="M76 70q0 18 22.5 46.5t67.5 56.5t113.5 48.5t162.5 20.5q51 0 85 -7.5t58.5 -16.5t42 -21.5t38.5 -20.5q45 27 123.5 93.5t156.5 163.5t135.5 222t57.5 269q0 94 -31 163.5t-80 114.5t-112.5 66.5t-129.5 21.5q-178 0 -287.5 -98t-109.5 -283q0 -129 63.5 -206.5 t180.5 -77.5q59 0 96 20.5t58.5 49t29.5 58t8 46.5q0 25 -22.5 44t-63.5 23t-70.5 31t-29.5 66t30.5 67.5t78.5 28.5q82 0 128 -58.5t46 -156.5q0 -70 -28 -134.5t-80 -114.5t-128 -81t-174 -31q-80 0 -145.5 28t-112.5 75t-73.5 109.5t-26.5 131.5q0 86 58 186.5 t158.5 187.5t236.5 144.5t294 57.5q145 0 246.5 -37t165 -97.5t92.5 -137t29 -158.5q0 -152 -69 -278t-198 -255q-74 -74 -143.5 -127t-126.5 -90t-100 -59.5t-64 -34.5q27 -18 91.5 -65.5t137 -100.5t138 -100t94.5 -66q156 -104 257 -160.5t166.5 -83t102.5 -30.5t62 -4 q92 0 142 26.5t75 53.5q12 12 11 24t-6 25.5t-12 27t-7 29.5q0 66 32.5 99.5t67.5 33.5q61 0 91 -30.5t30 -102.5q0 -35 -29 -82t-93.5 -90t-170 -73.5t-258.5 -30.5q-184 0 -334 44t-279 123.5t-244.5 192.5t-232.5 250q-25 -12 -58.5 -27.5t-74.5 -29t-87 -22.5t-91 -9 q-72 0 -125 32t-53 87zM260 127q0 -18 12.5 -31.5t31 -23t37.5 -14.5t34 -5q29 0 70.5 11.5t70.5 25.5q-49 47 -84 67.5t-80 20.5q-47 0 -69.5 -18.5t-22.5 -32.5z" />
<glyph unicode="R" horiz-adv-x="1802" d="M98 901q0 49 15.5 101.5t46 102.5t80 95t116.5 82q70 39 155 57.5t189.5 25.5t228.5 7h273q131 0 259 -8t222 -55q90 -45 128 -109.5t38 -130.5q0 -53 -25.5 -112.5t-79.5 -115t-136 -100.5t-195 -65q41 -119 95.5 -255t119 -267t138 -248t153.5 -197q94 -96 175 -137 t163 -41q47 0 86 13.5t65.5 35t39 50t3.5 59.5q-7 26 -6 46q0 23 9 38q16 29 45 32q49 0 65 -30.5t16 -67.5q0 -57 -26.5 -109.5t-76.5 -92.5t-123 -63.5t-163 -23.5q-80 0 -149.5 12.5t-135 40t-130 73.5t-131.5 116q-53 55 -104.5 132t-98.5 165t-89 182t-77 183.5 t-60.5 167t-41.5 133.5q-6 20 -17.5 28t-36.5 8q-16 0 -33.5 2.5t-37.5 4.5l-138 -449q-12 -43 -22 -83t-32.5 -70.5t-66.5 -48.5q-39 -16 -108 -15h-16q-43 2 -65.5 2t-27 12.5t8 45t36.5 100.5l328 1036q6 17 6 31q0 19 -11 31q-19 22 -62 22q-125 0 -252 -37t-242 -129 q-33 -27 -67.5 -55.5t-62.5 -59t-46.5 -66.5t-18.5 -77q0 -31 14.5 -53.5t35 -35.5t40 -20.5t31.5 -7.5q35 0 48.5 14.5t19.5 30.5q10 29 37.5 58.5t75.5 29.5q53 0 73.5 -32.5t20.5 -61.5q0 -49 -19.5 -81.5t-50.5 -52t-67.5 -29t-71.5 -9.5q-37 0 -85 11.5t-91 43t-73 89 t-30 151.5zM1079 750q10 -6 30.5 -10.5t45.5 -6.5t50.5 -3t43.5 -1q86 0 147.5 36t100.5 87t57.5 108.5t18.5 100.5q0 59 -26.5 103t-67.5 74t-89.5 44t-91.5 14q-23 0 -42 -11t-23 -28z" />
<glyph unicode="S" horiz-adv-x="1253" d="M-166 -115q0 74 31 136.5t83 108.5t120.5 72.5t144.5 26.5q113 0 175.5 -56t62.5 -144q0 -35 -27 -69t-92 -34q-29 0 -58.5 23.5t-35.5 60.5q-18 127 -88 129q-20 -2 -42 -18.5t-39.5 -49t-27.5 -78.5t-10 -108q0 -63 30.5 -125.5t86 -112.5t130 -81t164.5 -31 q123 0 215.5 39t152.5 104.5t91 151.5t31 180q0 106 -20.5 193.5t-50.5 161t-63.5 140t-62.5 134.5q-47 109 -76.5 201t-29.5 170q0 82 32.5 153.5t95 124.5t150.5 84t199 31q98 0 160.5 -24.5t97.5 -59.5t47 -71t12 -56q0 -47 -32.5 -90t-102.5 -43q-47 0 -75.5 32.5 t-28.5 67.5q0 31 7 52.5t17 37.5q16 29 -11.5 56.5t-98.5 27.5q-53 0 -92 -18.5t-66 -50t-39 -72.5t-12 -86q0 -115 38 -209t89 -201q31 -68 64.5 -133t61 -135t45 -143.5t17.5 -157.5q0 -143 -55 -266t-156.5 -214t-245 -142.5t-319.5 -51.5q-158 0 -270.5 36t-184 95.5 t-105.5 137t-34 163.5z" />
<glyph unicode="T" horiz-adv-x="1290" d="M104 993q0 31 8.5 70t29 82t55 86t90.5 78q70 45 172 69.5t248 24.5q141 0 259.5 -10.5t241.5 -24.5q100 -12 182.5 -23.5t122.5 -11.5q41 0 74 10.5t33 49.5q0 10 -4 23.5t-14 25.5q-8 10 -18.5 25.5t-10.5 37.5q0 20 17.5 48t64.5 28q61 0 80.5 -39t19.5 -86 q0 -27 -16.5 -74t-56.5 -92t-105.5 -78.5t-161.5 -33.5q-51 0 -134 9t-167 17l-305 -958q-16 -49 -28.5 -94.5t-33 -80t-52.5 -54.5q-29 -18 -76 -17h-11q-46 1 -76 1h-26q-38 -1 -38 29q0 23 17 70q20 57 60 176l307 951q-82 10 -176 14t-162 4q-160 0 -245 -66.5 t-85 -162.5q0 -14 2 -32.5t19 -41.5q14 -18 35 0q16 12 37.5 17.5t44.5 5.5q41 0 69.5 -29t28.5 -84q0 -37 -33 -74t-102 -37q-27 0 -57.5 11.5t-58.5 41t-46.5 77.5t-18.5 122z" />
<glyph unicode="U" horiz-adv-x="1536" d="M252 344q0 33 5 71t12 73.5t14.5 65.5l11.5 46l174 571q10 35 20.5 72t31 65.5t57.5 47.5q33 17 89 16h13q61 -2 91 -2t34 -14.5t-9.5 -52t-37.5 -117.5l-168 -547q-4 -16 -14.5 -51t-20.5 -76t-17.5 -84t-7.5 -78q0 -90 30 -141t70 -79t80 -35t58 -7q78 0 149.5 21.5 t118.5 60.5q74 57 128.5 151.5t99.5 264.5l125 471q18 63 30.5 120.5t26.5 100.5t35.5 68.5t58.5 25.5q45 0 67.5 -1t22.5 -27.5t-22.5 -88t-67.5 -180.5l-156 -504q-41 -133 -92 -243.5t-129 -190.5t-188.5 -124t-269.5 -44q-96 0 -179.5 22.5t-143.5 70t-95 117t-35 165.5 z" />
<glyph unicode="V" horiz-adv-x="1617" d="M434 385q0 90 34 197.5t87 217t119.5 214t132 185.5t124 132t95.5 55q10 2 14 -7t4 -19q0 -6 -4 -16.5t-22 -32.5q-43 -51 -96.5 -139.5t-101.5 -197t-79.5 -229t-31.5 -237.5q0 -127 78.5 -209t232.5 -82q37 0 82 10.5t90 35t90 63.5t82 94q37 53 62.5 120.5t42 139.5 t23.5 140.5t7 125.5q0 51 -14.5 88t-34.5 64.5t-43 48t-39 37.5q-35 35 -46 64.5t-11 58.5q0 41 30.5 68.5t79.5 27.5q111 0 173.5 -107.5t62.5 -291.5q0 -90 -19.5 -182.5t-53.5 -183.5t-82 -176t-103 -159q-23 -29 -74 -83t-125 -107.5t-166 -93t-196 -39.5 q-193 0 -298.5 109.5t-105.5 295.5z" />
<glyph unicode="W" horiz-adv-x="2043" d="M383 350q0 80 38 188.5t97.5 223.5t132 227.5t144 200.5t132 142t95.5 54q14 0 18 -8t4 -18q0 -6 -4 -16.5t-22 -32.5q-43 -51 -103.5 -151.5t-117 -219.5t-95 -243t-38.5 -224q0 -129 46 -198.5t124 -69.5q80 0 147.5 34.5t112.5 90.5q-16 76 -19.5 149.5t-3.5 122.5 q0 35 8 94.5t27.5 131t53.5 149.5t87 149q41 53 85 84t81 31h9q33 0 55 -13q25 -15 38 -42t18 -64t5 -78q0 -70 -24.5 -152.5t-61.5 -165.5t-81 -161t-85 -139q10 -41 30.5 -80t50.5 -67.5t70 -46t87 -17.5q68 0 139.5 43t130.5 152q33 61 52.5 126.5t29.5 125t12 108.5 t2 78q0 59 -7 101t-22.5 74t-39 58.5t-58.5 57.5q-31 29 -52 60.5t-21 72.5t30.5 71.5t77.5 30.5q55 0 102.5 -27.5t82 -78.5t54 -123t19.5 -158q0 -82 -15.5 -176t-43 -187.5t-66.5 -182.5t-86 -158q-35 -51 -78 -105.5t-96 -98.5t-115.5 -71.5t-132.5 -27.5 q-131 0 -203.5 72.5t-101.5 180.5q-86 -117 -182 -185t-234 -68q-141 0 -230 96t-89 274zM1244 616v-23q0 -45 3 -77h8q31 57 59.5 125t51.5 135.5t36 129t13 110.5q0 25 -10 47t-37 22q-23 0 -48.5 -30.5t-43.5 -110.5q-8 -35 -15.5 -90t-11.5 -117t-5 -121z" />
<glyph unicode="X" horiz-adv-x="2109" d="M-33 270q0 90 30 171t82 141.5t123.5 95.5t157.5 35q76 0 118 -41t42 -92q0 -57 -37 -85t-86 -28q-29 0 -49 17.5t-37 31.5q-25 23 -44 29t-38 6q-20 0 -49.5 -15.5t-57.5 -46t-47.5 -77.5t-19.5 -113q0 -86 40 -145.5t99.5 -98.5t129 -56t131.5 -17q98 0 187 26.5 t176 79.5t177 133t195 189q59 59 112.5 128.5t94.5 129.5q-12 66 -25.5 138.5t-27 142t-26.5 132t-26 105.5q-14 57 -55 57q-63 0 -91 20.5t-8.5 48t92.5 53.5t210 38q8 1 16 1q82 0 100 -81q12 -57 26.5 -154.5t37.5 -255.5h4q10 18 39 56.5t65.5 82.5t77.5 88t76 77 q35 31 79 70.5t96 74.5t110.5 58.5t124.5 23.5q61 0 99 -14.5t59.5 -34t29.5 -42t8 -36.5q0 -51 -31.5 -80t-84.5 -29q-35 0 -52.5 12.5t-27.5 28.5t-25.5 26.5t-38.5 10.5q-57 0 -131 -34.5t-162 -108.5q-45 -39 -91 -88t-87 -97.5t-71.5 -89.5t-45.5 -63q2 -20 10.5 -62.5 t18.5 -93.5t22.5 -106.5t22.5 -105.5t19.5 -88t13.5 -52q25 -84 44 -127t52 -43q70 0 99.5 -18.5t10 -45t-94 -53t-213.5 -41.5q-35 -4 -57.5 7.5t-39 32t-27 48t-18.5 58.5q-4 10 -14 61t-23.5 118.5t-24.5 140.5t-18 126q-74 -92 -165 -212t-218 -249q-90 -90 -171 -148 t-156.5 -93t-148 -49.5t-146.5 -14.5t-154 27.5t-145.5 86t-108.5 148.5t-43 213z" />
<glyph unicode="Y" horiz-adv-x="1105" d="M130 1124q-4 -4 -4 1q0 6 7 26q16 41 44 86t70 82t99 60.5t131 23.5t125 -25.5t84 -65.5t48.5 -89t19.5 -97q2 -29 2 -56q0 -82 -19 -149q-25 -89 -51 -155q-8 -18 -5 -21.5t13 -5.5q20 0 29 19q27 55 69 125.5t94 142.5t112.5 139.5t125.5 114.5q76 57 157 90t192 33 q96 0 154.5 -46t58.5 -112q0 -37 -11.5 -62.5t-29 -43t-37 -24.5t-35.5 -7q-47 0 -78 30q-27 26 -27 51q0 2 0.5 7.5t0.5 7.5q0 47 -70 47q-37 0 -82 -11t-91 -31.5t-90 -52.5t-79 -71q-72 -80 -128.5 -157.5t-105.5 -163.5t-92 -184.5t-84 -217.5l-63 -180 q-12 -37 -20.5 -70.5t-26 -59t-51.5 -40.5q-30 -13 -83 -12h-16q-70 2 -99.5 4t-33.5 17.5t11.5 51.5t37.5 103l113 318q16 47 33.5 109.5t31 132t22.5 142t9 144.5q0 92 -43 149.5t-119 57.5q-61 0 -108 -24.5t-75 -48.5t-37 -32z" />
<glyph unicode="Z" horiz-adv-x="1198" d="M-20 -29q0 39 26.5 79t64.5 74t81 59.5t77 37.5l772 793l-4 18q-48 -7 -86 -7q-15 0 -29 1q-48 4 -84 18.5t-61.5 36t-48.5 47.5q-12 14 -30.5 38t-43 45.5t-55.5 37t-67 15.5q-47 0 -75 -26t-28 -62q0 -14 14.5 -24.5t32.5 -14.5q39 -4 53.5 -31t14.5 -62t-34 -72.5 t-97 -37.5q-53 0 -95 41t-42 115q0 39 18 86t63 88t121 67.5t191 26.5q63 0 116.5 -7.5t100.5 -20.5t90 -35.5t88 -53.5q41 -29 80 -60.5t76 -31.5q27 0 42 27.5t31 78.5q14 47 45 84t91 37q49 0 65 -25.5t16 -62.5q0 -29 -21.5 -58.5t-54 -57t-74.5 -49t-81 -31.5 l-821 -840l4 -8q31 0 87 -1t124.5 -19.5t142.5 -62.5t142 -126q74 -92 123 -163t91 -119t81.5 -73.5t93.5 -27.5q35 0 53 11t27.5 26.5t11.5 34t4 30.5q10 84 46 119t85 35q59 0 81.5 -39t22.5 -86q0 -41 -27.5 -80t-74.5 -68.5t-109.5 -48t-134.5 -18.5q-133 0 -228 26.5 t-176 76.5t-157 123t-170 167q-27 27 -55.5 56.5t-60 54t-66.5 40t-74 15.5q-23 0 -54.5 -35t-49.5 -115q-8 -35 -37 -69.5t-82 -34.5q-57 0 -79.5 30.5t-22.5 67.5z" />
<glyph unicode="[" horiz-adv-x="634" d="M-14 -416l538 1977q4 10 8.5 15t20.5 5h410q23 0 16 -14l-14 -54q-4 -10 -29 -10h-201q-16 0 -24 -28l-500 -1823q-4 -20 12 -21h228q16 0 14 -14l-12 -47q-2 -14 -31 -14h-426q-20 -1 -10 28z" />
<glyph unicode="\" horiz-adv-x="655" d="M217 1356q-2 4 1 10t13 8l95 29q20 4 24 -14l277 -1375q2 -14 -21 -18l-90 -25q-14 -2 -20 19z" />
<glyph unicode="]" horiz-adv-x="634" d="M-258 -430l14 53q4 10 29 10h201q16 0 24 29l500 1823q4 20 -12 20h-228q-16 0 -14 15l12 47q2 14 31 14h418q25 0 18 -29l-538 -1976q-4 -10 -8.5 -15t-20.5 -5h-410q-22 0 -16 14z" />
<glyph unicode="^" horiz-adv-x="1024" d="M94 549l426 854h68l426 -854h-164l-293 616h-12l-295 -616h-156z" />
<glyph unicode="_" horiz-adv-x="1024" d="M0 -154h1024v-102h-1024v102z" />
<glyph unicode="`" horiz-adv-x="491" d="M259 1181.5q-9 28.5 0 53.5t30.5 42t50.5 17t49.5 -15t32.5 -34l158 -244q8 -8 0 -16l-15 -16q-8 -10 -18 0l-244 161q-35 23 -44 51.5z" />
<glyph unicode="a" horiz-adv-x="931" d="M31 139q0 63 20.5 143t56 162t87 160t112 137.5t129 96t142.5 36.5q70 0 104.5 -23.5t54.5 -47.5l33 59q14 23 37 23h145q18 0 18 -15q0 -4 -1 -10q-12 -33 -34 -94t-44.5 -127t-42 -123t-25.5 -82q-4 -12 -16 -56t-26.5 -93t-26 -91t-11.5 -55q0 -25 25 -24 q12 0 27.5 -15.5t8.5 -37t-51 -45t-151 -37.5q-10 -1 -18 -2q-33 0 -47 19q-18 24 -19 48q0 10 3 24.5t11.5 43t23.5 76t42 122.5l-18 11q-31 -47 -71 -105.5t-91 -112t-112.5 -89t-133.5 -35.5q-20 0 -45 13t-46.5 35.5t-35.5 51t-14 59.5zM274 207q0 -35 12.5 -48.5 t37.5 -13.5q20 0 62 43t86 101.5t83 118t53 90.5q18 41 32.5 92t14.5 104q0 35 -29.5 63.5t-60.5 28.5q-76 0 -153 -139q-78 -137 -108 -250.5t-30 -189.5z" />
<glyph unicode="b" horiz-adv-x="962" d="M33 127q0 31 7 67.5t17 61.5q106 293 217 572.5t226 560.5h211q16 0 19 -11.5t-3 -25.5l-332 -740l21 -10q33 51 70.5 100.5t82.5 87t99.5 61t122.5 23.5q35 0 63.5 -16t48 -41.5t29.5 -58.5t10 -66q0 -43 -9 -100t-34 -123t-68 -138.5t-110 -144.5q-43 -45 -90 -82.5 t-106.5 -65.5t-135.5 -43t-174 -15q-74 0 -128 35.5t-54 111.5zM258 127q0 -29 13.5 -43t54.5 -18q35 0 91 34.5t105 94.5q98 117 138 222t40 214q0 45 -14 71.5t-37 26.5q-41 0 -109.5 -68.5t-142.5 -185.5q-27 -41 -51 -92t-43.5 -100.5t-32 -91t-12.5 -64.5z" />
<glyph unicode="c" horiz-adv-x="677" d="M51 207q0 92 38 207.5t106.5 218t163 172t204.5 69.5q45 0 76 -12t49.5 -29.5t26.5 -37t8 -33.5q0 -47 -30.5 -83t-61.5 -36q-66 0 -82 53q-8 27 -23.5 46.5t-42.5 19.5q-29 0 -49 -36t-49 -101q-18 -47 -33.5 -87t-26 -82t-16.5 -92.5t-6 -117.5q0 -47 13.5 -88 t64.5 -41q47 0 97 25.5t71 47.5q10 14 18 9l25 -21q12 -8 2 -22q-10 -16 -40 -46t-74 -58.5t-101 -50t-123 -21.5q-35 0 -70.5 13t-65.5 41.5t-49.5 71t-19.5 101.5z" />
<glyph unicode="d" horiz-adv-x="995" d="M31 172q0 49 13 112.5t43 135.5t75 145.5t106 143.5q23 25 54.5 53.5t70.5 53t85 41.5t100 17q43 0 85 -16t70 -49l158 580h211q23 0 27 -14q2 -6 3 -13q0 -8 -4 -16q-4 -14 -21 -65.5t-42 -127.5t-54.5 -170t-60 -193.5t-60.5 -195.5t-54.5 -178t-41 -140.5t-22.5 -82.5 q-9 -36 -8 -58q0 -31 22 -31q12 0 31 -9t11.5 -26.5t-55.5 -40t-167 -48.5q-11 -2 -20 -3q-23 0 -37 15q-20 20 -21 49q0 41 22.5 114.5t51.5 159.5l-24 13q-37 -59 -79 -122t-90.5 -113t-102.5 -81.5t-113 -31.5q-39 0 -69 18t-50.5 47t-31.5 62.5t-11 64.5zM283 197 q0 -37 13 -54.5t36 -17.5q14 0 37.5 21.5t51.5 56.5t57.5 77t58.5 82q20 31 43.5 71t42 81t31 81t12.5 71q0 57 -25 96t-78 39q-27 0 -58.5 -34t-62 -88t-59.5 -122t-51.5 -135.5t-35.5 -126.5t-13 -98z" />
<glyph unicode="e" horiz-adv-x="798" d="M51 209q0 57 13.5 123.5t42 136.5t76.5 137.5t116 124.5q76 66 163 104.5t179 38.5q86 0 123 -40.5t37 -100.5q0 -86 -48 -150.5t-139 -115.5q-86 -47 -163.5 -66.5t-137.5 -23.5q-6 -14 -11 -50t-5 -79q0 -53 28.5 -93t82.5 -40q76 0 131 33.5t90 72.5q8 12 16 6l33 -22 q10 -8 4 -21q-14 -29 -49 -63.5t-85 -66t-115.5 -53t-141.5 -21.5q-104 0 -172 59t-68 170zM330 453q2 0 5 -1q27 0 79 19q57 20 102 64q25 23 45.5 69.5t20.5 97.5q0 25 -10.5 47.5t-45.5 22.5q-29 0 -59.5 -30.5t-57 -79t-47 -104.5t-32.5 -105z" />
<glyph unicode="f" horiz-adv-x="632" d="M-434 -475q0 43 26.5 75.5t73.5 32.5q49 0 76 -32.5t31 -81.5q4 -35 45 -35q76 0 139 131t129 410l164 698h-172q-18 0 -15 18l13 56q2 8 6 12t16 4h170q23 57 38.5 109.5t35.5 104.5t54 109.5t96 125.5q18 20 53 45.5t79 48t93 38t98 15.5q66 0 112 -13.5t74.5 -34 t41 -48t12.5 -53.5q0 -39 -30 -71t-75 -32q-66 0 -92.5 30t-36.5 79q-4 16 -17 37.5t-48 21.5q-51 0 -88 -49t-65 -125t-49.5 -166t-41.5 -172h215q16 0 14 -18l-10 -52q-2 -20 -22 -20h-213q-16 -63 -40 -155.5t-49.5 -194t-54 -202.5t-55.5 -181q-37 -111 -91 -217.5 t-123 -191.5t-151 -137t-176 -52q-92 0 -141 37t-49 96z" />
<glyph unicode="g" horiz-adv-x="960" d="M-154 -352q0 51 13.5 82.5t66.5 74.5q63 51 138 84t124 54q-47 35 -63 63.5t-16 63.5t50 76.5t134 76.5v4q-47 23 -80 46.5t-53.5 52t-30.5 68.5t-10 95t27.5 122t83 125.5t136 98t187.5 39.5q51 0 90 -10t65.5 -25.5t43 -31.5t24.5 -29q33 25 78 49.5t92 24.5 q49 0 71.5 -30.5t24.5 -63.5q-2 -41 -25.5 -64.5t-60.5 -23.5q-18 0 -35.5 9t-29.5 21q-8 8 -16.5 15.5t-18.5 7.5q-27 0 -45 -18q8 -18 10 -46t2 -63q0 -37 -21.5 -95.5t-65.5 -116.5t-110.5 -104.5t-154.5 -58.5q-35 -4 -61.5 -7t-30.5 -5q-33 -14 -51.5 -39t-18.5 -47 q0 -16 18.5 -33.5t32.5 -26.5q31 -16 107 -55t188 -102q94 -53 127 -107.5t33 -101.5q0 -27 -6 -56.5t-23.5 -60.5t-49 -60.5t-81.5 -54.5q-66 -35 -144.5 -54t-203.5 -19q-98 0 -183 20.5t-146.5 56t-96.5 82t-35 97.5zM80 -319q0 -111 81 -162t204 -51q33 0 68.5 8 t66 26.5t51 46t20.5 66.5q0 33 -7 55.5t-23.5 41t-46 38t-72.5 43.5q-8 4 -34 18.5t-55.5 31t-57 31.5t-42.5 26q-63 -39 -108 -88t-45 -131zM346 385q0 -53 14.5 -74.5t47.5 -21.5q39 0 73.5 38t60 95t40 124.5t14.5 127.5q0 63 -7 96t-50 33q-35 0 -58.5 -21.5 t-52.5 -74.5q-33 -59 -50.5 -101.5t-24.5 -76t-7 -67.5v-77z" />
<glyph unicode="h" horiz-adv-x="1024" d="M-6 25l508 1364h215q25 0 24 -21q0 -20 -22 -72l-303 -714l18 -15q35 55 77 110.5t90 98.5t100.5 70.5t107.5 27.5q57 0 92 -20t55.5 -51t27.5 -70t7 -76q0 -111 -38 -230.5t-93 -217.5q-74 -127 -164 -201t-200 -74q-53 0 -92 33t-37 99q-2 39 21.5 71.5t68.5 32.5 q41 0 59.5 -24.5t22.5 -51.5q2 -31 9 -52.5t30 -21.5q16 0 31.5 21.5t28.5 55.5t26 77l24 86q25 86 46.5 188.5t21.5 184.5q0 88 -62 88q-29 0 -64.5 -26.5t-71.5 -63.5t-69.5 -77t-54.5 -69q-37 -51 -63.5 -100t-40.5 -84l-117 -287q-8 -14 -35 -14h-164q-23 0 -23 14 q0 5 3 11z" />
<glyph unicode="i" horiz-adv-x="530" d="M82 41q0 14 7 39.5t21.5 71t37 111t55.5 159.5l55 162q14 41 22.5 68.5t8.5 45.5q0 27 -27 27q-6 0 -18.5 6t-20.5 17.5t-7 25.5t24.5 31.5t72.5 35t140 33.5q13 3 24 3q30 0 47 -19q25 -27 25 -57q0 -35 -17.5 -85t-48.5 -141l-110 -313q-20 -57 -26.5 -82.5t-6.5 -42.5 q0 -10 5 -19t22 -9q37 0 34.5 -20.5t-32 -44.5t-84 -44t-123.5 -20q-47 0 -63.5 19t-16.5 42zM348 1206q0 47 37 86t90 39q74 0 110 -33.5t36 -80.5q0 -25 -11.5 -48.5t-31 -43t-45 -32t-54.5 -12.5q-59 0 -95 33t-36 92z" />
<glyph unicode="j" horiz-adv-x="571" d="M-412 -332q0 45 28 81q30 38 77 38q57 0 85.5 -36t28.5 -73q0 -31 10.5 -50t24.5 -19q39 0 75 41t72 116.5t73.5 184t78.5 244.5l131 423q8 25 9.5 42.5t1.5 29.5t-9.5 21.5t-23.5 9.5q-8 0 -21.5 7t-21.5 19.5t-5 29t29.5 32.5t81 33.5t150.5 31.5q31 4 57.5 -19.5 t26.5 -57.5q0 -25 -17.5 -108t-58.5 -202l-119 -354q-12 -37 -35.5 -95t-59.5 -126t-83 -135.5t-105.5 -122.5t-127 -90t-148.5 -35q-51 0 -90 12.5t-64.5 31.5t-38 42.5t-12.5 52.5zM344 1207q0 50 38 93q40 45 116 46q74 0 108.5 -37t34.5 -82q0 -57 -45 -101.5 t-104 -44.5t-103.5 37t-44.5 89z" />
<glyph unicode="k" horiz-adv-x="894" d="M-6 10q-2 5 -2 10.5t2 10.5l508 1349l235 9q16 0 17.5 -13.5t-4.5 -27.5l-310 -699l15 -8q25 33 64.5 74t87.5 76.5t101.5 59t106.5 23.5q59 0 100 -32.5t41 -100.5q0 -63 -45 -119.5t-106.5 -101.5t-125 -77.5t-101.5 -47.5v-16l151 -232q27 -39 45.5 -54t34.5 -15 q12 0 34.5 -10.5t22.5 -25.5t-36.5 -32.5t-143.5 -29.5q-20 -2 -37 -3q-57 0 -88 26q-41 34 -72 99l-88 205q-10 23 -28.5 30t-36.5 7l-115 -330q-4 -14 -31 -14h-180q-12 0 -16 10zM358 399q18 -4 38 -3q43 0 88 19q65 28 119 75t89 103t35 99q0 18 -12.5 34.5t-34.5 16.5 q-20 0 -52 -19t-65 -46t-59.5 -52.5t-36.5 -37.5q-14 -16 -32.5 -37t-28.5 -39z" />
<glyph unicode="l" horiz-adv-x="471" d="M25 66q0 12 6 35.5t15 51t18.5 54t17.5 49.5l391 1133h209q19 0 19 -17q0 -8 -5 -20l-409 -1149q-13 -34 -13 -56q0 -32 33 -32q8 0 21.5 -7.5t21.5 -18.5t4 -25.5t-28.5 -30t-74.5 -29.5t-138 -24q-3 0 -7 -1q-13 0 -25 7q-15 8 -27.5 21t-20.5 30t-8 29z" />
<glyph unicode="m" horiz-adv-x="1572" d="M63 27l134 387q16 47 32.5 95t30.5 88t22.5 68.5t8.5 41.5q0 10 -4 19t-21 9q-18 0 -33.5 21.5t-7.5 48t52.5 48t142.5 21.5q66 0 90.5 -21.5t24.5 -57.5q0 -23 -17.5 -72t-40 -102.5t-43 -99.5t-26.5 -62l20 -15q31 53 76 127t100 141.5t121 114.5t139 47q51 0 90 -31.5 t39 -68.5q0 -23 -13 -67.5t-29.5 -94t-35 -93.5t-26.5 -68l18 -15q41 61 89 138t104.5 143.5t121 111.5t140.5 45q33 0 56.5 -12t39 -30.5t22.5 -38t7 -33.5q0 -25 -9.5 -66t-24.5 -90t-34.5 -104.5t-38.5 -110.5q-31 -88 -54 -150.5t-23 -84.5q4 -29 24 -29 q18 0 23.5 -21.5t-13 -47t-63.5 -49t-127 -27.5q-7 -1 -13 -1q-41 0 -59 23q-23 29 -22 53q0 59 110 351q25 63 40.5 106t24.5 73.5t13 49t4 33.5q0 39 -37 39q-12 0 -42.5 -30t-72.5 -81t-91.5 -117.5t-98.5 -140.5q-10 -16 -30.5 -54t-38.5 -91l-64 -181q-4 -12 -29 -12 h-174q-29 0 -20 27l123 340q39 106 66.5 190t27.5 109q0 16 -6 28.5t-29 12.5q-12 0 -44 -29t-72 -76t-87 -108.5t-90 -128.5q-20 -29 -41.5 -72t-44.5 -98l-67 -181q-4 -14 -29 -14h-172q-21 0 -21 14q-1 6 2 13z" />
<glyph unicode="n" horiz-adv-x="970" d="M25 23l141 393q18 49 34.5 96t29 87t20.5 67.5t8 38.5q0 33 -27 32q-6 0 -11 21.5t8.5 47t57.5 47t138 21.5q47 0 64.5 -27.5t17.5 -51.5q0 -23 -28.5 -96.5t-69.5 -170.5l18 -14q23 33 64.5 94.5t99 119.5t126 102t144.5 44q33 0 57.5 -13t41 -33.5t24.5 -45t8 -45.5 q0 -16 -6 -42.5t-19.5 -70.5t-37 -109.5t-56.5 -160.5q-37 -104 -51 -147t-14 -62q0 -35 27 -34q6 0 19 -13.5t4 -33t-55 -42t-159 -42.5q-11 -2 -20 -2q-31 0 -44 21q-17 28 -18 58q0 29 30 117t77 223q12 35 26.5 76t26.5 80t20.5 68.5t8.5 44.5q0 45 -41 45 q-18 0 -52 -28t-75 -71t-82 -96t-72 -102q-35 -53 -62.5 -99.5t-37.5 -72.5l-80 -230q-4 -6 -9.5 -9t-21.5 -3h-174q-20 0 -20 13q0 5 2 10z" />
<glyph unicode="o" horiz-adv-x="858" d="M63 293q0 125 38 247t124 216q63 66 136 92t157 26q41 0 91 -12t94.5 -45t74 -91t29.5 -153q0 -45 -9.5 -105t-28.5 -126t-52 -129t-82 -115q-59 -66 -131 -92t-170 -26q-45 0 -92 16t-87 53t-66 97.5t-26 146.5zM233 188q0 -31 18.5 -60.5t53.5 -29.5q23 0 47.5 9.5 t50 32t54 62.5t59.5 99q25 45 47.5 97.5t40 103.5t27.5 95t10 73q0 37 -17.5 62.5t-58.5 25.5q-59 0 -109 -56.5t-120 -181.5q-53 -92 -78 -180.5t-25 -151.5z" />
<glyph unicode="p" horiz-adv-x="878" d="M-245 -589q-3 8 -3 20q0 18 7 47q11 47 44 143l410 1204q4 10 11 16.5t26 10.5l278 22q147 0 229.5 -79.5t82.5 -206.5q0 -115 -56.5 -224.5t-195.5 -209.5q-78 -57 -193.5 -98.5t-240.5 -55.5l-131 -401q-12 -41 -22.5 -78t-27 -66.5t-43 -46t-73.5 -16.5h-69 q-26 0 -33 19zM182 76q63 10 136 47t136.5 97.5t105.5 139t42 175.5q0 68 -11 111.5t-29.5 71t-41 39t-43.5 11.5h-23q-13 0 -30 -4z" />
<glyph unicode="q" horiz-adv-x="987" d="M63 227q0 51 7.5 115t31 133.5t65.5 142t109 140.5q37 35 72 57.5t72 35.5t79 18t93 5q63 0 105 -23.5t63 -49.5h213q12 0 18 -15q2 -5 2 -11q0 -13 -8 -34l-436 -1177q-10 -29 -20.5 -59.5t-31 -56.5t-53.5 -42q-29 -15 -74 -14h-12q-41 1 -67 1h-22q-28 -1 -29.5 11 t17.5 47t50 109l221 510l-16 12q-41 -45 -103.5 -73.5t-123.5 -28.5q-33 0 -71 12t-71.5 40.5t-56.5 75.5t-23 119zM268 158q0 -92 82 -92q47 0 91 37.5t84 96t72 129t55.5 137t36.5 121t13 81.5q0 47 -14 80.5t-59 33.5q-35 0 -58.5 -14t-62.5 -57q-47 -53 -90 -124 t-77 -146.5t-53.5 -150.5t-19.5 -132z" />
<glyph unicode="r" horiz-adv-x="798" d="M86 18l98 332q12 43 29.5 98.5t33 107.5t26 94t10.5 57q0 16 -9.5 27t-25.5 11q-4 0 -20.5 6.5t-13.5 20.5t40 40t141 62q18 6 33 7q9 0 16 -2q20 -6 32.5 -20.5t19 -33t6.5 -32.5q0 -29 -25.5 -99.5t-62.5 -171.5l22 -12q18 43 51 104.5t74 120t92.5 99t106.5 40.5 q45 0 81 -30.5t36 -79.5q0 -27 -9.5 -51.5t-24 -43t-29.5 -28.5t-30 -10q-43 0 -67 16l-25 17q-12 8 -33 8q-25 0 -55.5 -27t-61 -66.5t-58 -87t-44.5 -85.5q-16 -37 -32.5 -82t-34.5 -103l-66 -207q-6 -14 -26 -14h-177q-20 0 -20 11q0 3 2 7z" />
<glyph unicode="s" horiz-adv-x="665" d="M-23 102q0 47 26 74t63 27q41 0 66.5 -25.5t43.5 -71.5q8 -23 23.5 -37t31.5 -14q94 0 97 138q0 25 -7.5 45t-20.5 41.5t-30.5 47t-38.5 60.5q-23 37 -39 64.5t-26 50t-15.5 46t-5.5 52.5q0 53 21.5 102.5t64.5 88t106.5 61t147.5 22.5q31 0 63 -6t56.5 -20t41 -39 t16.5 -59q0 -47 -24 -75t-69 -28q-33 0 -58.5 18.5t-31.5 67.5q-4 23 -15 42.5t-34 19.5q-31 0 -52.5 -18.5t-21.5 -94.5q0 -29 11.5 -57.5t29 -55t36 -50t30.5 -38.5q49 -59 62.5 -104t13.5 -105q0 -61 -22.5 -114.5t-65.5 -93t-107.5 -62t-146.5 -22.5q-111 0 -165.5 34.5 t-54.5 87.5z" />
<glyph unicode="t" horiz-adv-x="579" d="M66 53q0 31 5 64t17 63l186 543h-159q-20 0 -13 22l13 54q6 14 22 14h170l111 299q6 16 17 21.5t52 7.5q46 3 82 3h18q42 -1 70 -1q10 0 15.5 -13.5t1.5 -23.5l-131 -293h207q12 0 11 -10q0 -4 -1 -8l-15 -54q-6 -18 -26 -18h-207l-168 -451q-8 -25 -18.5 -57.5 t-10.5 -50.5q0 -16 11.5 -27.5t33.5 -11.5q10 0 28 -5t30 -13.5t11 -21.5t-25.5 -28.5t-79 -35t-152.5 -41.5q-13 -3 -24.5 -3.5t-21.5 3.5q-19 6 -32.5 18t-20.5 27.5t-7 27.5z" />
<glyph unicode="u" horiz-adv-x="974" d="M90 80q0 33 7 67.5t22.5 79.5t39 101.5t54.5 132.5q41 102 61.5 166.5t20.5 85.5q0 35 -35 35q4 0 -6 2t-19.5 7t-12.5 13t14.5 22.5t62.5 35t129 46.5q13 4 25 5q10 0 19 -3q19 -7 32.5 -22.5t22 -36t8.5 -39.5q0 -35 -25 -116.5t-86 -233.5q-39 -94 -62.5 -159.5 t-23.5 -94.5q0 -16 11 -26.5t24 -10.5q12 0 49 36t80 86t84 102.5t59 82.5q27 45 46.5 89.5t41.5 109.5l66 197q4 14 30 14h183q23 0 23 -15q0 -5 -3 -12l-143 -438q-41 -123 -57.5 -181t-16.5 -71q2 -14 9 -19t18 -5q-2 0 7 -2t17 -7.5t8 -14.5t-20 -23.5t-65.5 -36 t-126.5 -49.5q-14 -5 -26 -6q-21 0 -37 17q-24 26 -24 58q0 14 12.5 56t30 91.5t34 95.5t24.5 68l-23 13q-29 -43 -73.5 -109.5t-105 -130t-131.5 -108.5t-146 -45q-20 0 -40 11t-35.5 26.5t-24.5 33t-7 29.5z" />
<glyph unicode="v" horiz-adv-x="768" d="M53 80q0 33 7.5 67.5t22.5 79.5t38.5 101.5t54.5 132.5q41 102 61.5 166.5t20.5 85.5q0 35 -35 35q4 0 -6 2t-19.5 7t-12.5 13t14.5 22.5t62.5 35t129 46.5q13 4 25 5q10 0 19 -3q19 -7 32.5 -22.5t22 -36t8.5 -39.5q0 -35 -24.5 -116.5t-86.5 -233.5 q-39 -94 -62.5 -159.5t-23.5 -94.5q0 -16 11.5 -26.5t23.5 -10.5t49 36t80 86t84 102.5t59 82.5q27 45 46.5 89.5t41.5 109.5l66 197q2 4 13 7t26.5 4t30 2t20.5 1q16 0 16 -23q0 -16 -8 -41q-18 -65 -68.5 -162.5t-125 -211t-161.5 -210.5t-176 -161.5t-169 -64.5 q-20 0 -40 11t-35 26.5t-24.5 33t-7.5 29.5z" />
<glyph unicode="w" horiz-adv-x="1224" d="M55 209q6 98 51.5 214t106.5 214t128 163.5t116 65.5q20 0 28.5 -11t-8.5 -32q-20 -27 -54 -83t-65.5 -126.5t-54 -148.5t-22.5 -150q0 -53 28.5 -98t75.5 -47q41 0 87 18.5t89 71.5q23 29 45.5 99.5t34.5 170.5q4 45 6 114t19 132q10 39 49 55.5t69 16.5 q35 0 58.5 -16.5t23.5 -40.5q0 -43 -27.5 -103.5t-50.5 -142.5q-6 -27 -14 -58.5t-15 -63.5t-11.5 -60.5t-4.5 -47.5q0 -55 28 -100t97 -45q49 0 93.5 25.5t77 68.5t52 101.5t19.5 123.5q0 70 -15.5 123.5t-33.5 69.5q-16 12 -31.5 40t-15.5 52q0 41 27.5 70.5t72.5 29.5 q76 0 120 -55t44 -172q0 -57 -13.5 -119.5t-37 -125t-56 -123t-69.5 -111.5q-29 -39 -58.5 -73t-65.5 -59.5t-81 -40.5t-102 -15q-51 0 -86 19t-57.5 50t-35 68t-18.5 71q-20 -29 -54 -64.5t-77 -67t-96.5 -54t-110.5 -22.5q-119 0 -165 65q-41 58 -40 141q-1 11 0 23z" />
<glyph unicode="x" horiz-adv-x="884" d="M4 61q0 4 4 15.5t18.5 23t40 20.5t66.5 9q14 0 47 25.5t71 64.5t77 86t69 90l-69 283q-6 31 -18.5 39t-24.5 8q4 0 -6.5 1t-22.5 5t-18.5 13.5t7 26.5t54.5 42t123 61q12 6 24 7l17 -3q20 -7 36.5 -24.5t28 -44.5t15.5 -57l30 -185h13q16 31 36.5 66t41 66.5t39 57 t32.5 40.5q25 25 57.5 51t92.5 26q43 0 62.5 -23.5t19.5 -57.5q0 -23 -13 -41q-10 -16 -38 -27q-17 -6 -43 -6q-16 0 -35 2q-16 2 -43 -18.5t-60 -54.5t-67.5 -77t-67.5 -86l78 -323q12 -53 51 -53q12 0 33.5 -5.5t20.5 -19.5t-39.5 -40t-145.5 -64q-18 -6 -33 -7 q-9 0 -18 2q-23 6 -39 24.5t-28.5 47.5t-18.5 62l-43 200l-8 2q-31 -53 -69 -111.5t-79 -107.5t-83 -80.5t-85 -31.5q-39 0 -64.5 19t-25.5 62z" />
<glyph unicode="y" horiz-adv-x="788" d="M-209 -500q0 55 33 90t70 35q27 0 42 -10t29 -27q14 -14 31.5 -23t34.5 -9q16 0 34.5 5t47.5 23q33 20 64.5 49t56 57.5t43 54.5t26.5 38q23 31 27 70q2 16 1 33q0 27 -3 59q-8 242 -35 405.5t-53.5 267t-45.5 156.5q-15 42 -16 65q0 6 1 11q5 23 44 23.5t129 0.5 q31 0 54.5 -11t40 -38.5t27.5 -75t15 -118.5q6 -88 9.5 -174t4.5 -161q1 -37 0.5 -70t-0.5 -62q-1 -57 -3 -86l24 -2l32 64t50.5 107.5t49 119t30.5 96.5l10 57.5t6 79.5q0 41 -18 88t-18 88q0 35 26.5 66.5t83.5 31.5q72 0 97.5 -43t25.5 -114q0 -29 -12.5 -75t-34 -102.5 t-48 -117t-54.5 -113.5q-41 -78 -101.5 -177t-129 -200.5t-141.5 -195.5t-138 -160l-53 -52q-32 -32 -71.5 -60.5t-86.5 -50t-99 -21.5q-72 0 -105.5 31.5t-33.5 76.5z" />
<glyph unicode="z" horiz-adv-x="995" d="M25 39q0 33 18 64.5t46 57t61.5 43t62.5 25.5l412 389l-9 13q-34 -5 -62 -5q-38 0 -67 9q-49 16 -92 61l-56 57q-32 32 -60 31q-14 0 -24.5 -9t-10.5 -19q0 -23 20 -37q10 -8 26.5 -24.5t14.5 -57.5q4 -35 -23.5 -61.5t-58.5 -26.5q-53 0 -86 30.5t-33 90.5 q0 37 17.5 73.5t50.5 66.5t82 47t115 17q84 0 146.5 -16t111.5 -49q43 -29 62.5 -40t41.5 -11q18 0 29.5 20.5t21.5 48.5q10 29 40 62t81 33q33 0 51.5 -18.5t18.5 -41.5q0 -29 -18.5 -59.5t-46 -59t-61.5 -54t-65 -44.5l-411 -383l4 -14q13 1 24 0q35 0 61 -4 q34 -6 57.5 -17.5t39.5 -27t33 -33.5q57 -61 92 -99t63 -38q33 0 53.5 17t20.5 40q0 18 -6 32.5t-16 28.5q-23 31 -28 52.5t-5 48.5q0 35 28.5 58.5t69.5 23.5q57 0 81 -35t24 -94q0 -45 -15.5 -92.5t-53.5 -85t-101.5 -61t-157.5 -23.5q-53 0 -92 5t-70 16t-54.5 27.5 t-45.5 39.5q-29 29 -58.5 59.5t-52.5 30.5q-18 0 -38.5 -16.5t-30.5 -55.5q-10 -35 -36 -55.5t-73 -20.5q-35 0 -49 23.5t-14 46.5z" />
<glyph unicode="{" horiz-adv-x="634" d="M119 -76q0 82 24.5 152.5t53.5 132.5q31 63 58.5 119.5t27.5 109.5q0 47 -5.5 68.5t-15.5 36.5q-18 25 -78 30q-27 4 -26 39q0 35 37 35q20 0 39.5 4t54.5 21q29 14 58.5 48t33.5 87q4 45 3 87l-2 84q-1 42 -1 88t6 101q10 92 52 163t101.5 121t130 80t138.5 42 q31 6 55.5 7t38.5 1q35 0 35 -29q0 -43 -25 -43q-12 0 -30.5 -2t-34.5 -6q-102 -20 -160.5 -94t-79.5 -231q-6 -45 -10 -90.5t-7 -86.5t-6 -74.5t-10 -58.5q-10 -45 -45.5 -100t-111.5 -96q-39 -23 -71 -38.5t-32 -35.5q0 -14 25 -29.5t43 -27.5q29 -18 52.5 -53t23.5 -85 q0 -29 -9.5 -62.5t-22.5 -69.5t-27.5 -70.5t-24.5 -63.5q-16 -41 -29.5 -96t-13.5 -129q0 -127 35.5 -193.5t95.5 -81.5q20 -4 40.5 -6t31.5 -2q14 0 14 -43q0 -29 -14 -28q-10 0 -32 1t-61 5q-41 4 -96 24.5t-105.5 62.5t-86 109.5t-35.5 165.5z" />
<glyph unicode="|" horiz-adv-x="512" d="M279 -512v2054q0 18 12 19h112q14 0 15 -25v-2048q0 -20 -10 -20h-117q-12 0 -12 20z" />
<glyph unicode="}" horiz-adv-x="634" d="M-166 -416q0 43 25 43q12 0 30.5 2t34.5 6q102 20 160.5 94t79.5 232q6 45 10 90t7 86t6 75t10 58q10 45 46 100.5t111 96.5q39 23 71 38t32 36q0 14 -24.5 29.5t-43.5 25.5q-35 20 -55.5 55t-20.5 84q0 27 9.5 61.5t22.5 70.5t27.5 71t24.5 63q16 41 29.5 96.5 t13.5 129.5q0 127 -37.5 194.5t-93.5 81.5q-20 4 -40.5 5t-30.5 1t-12.5 12.5t-2.5 28.5q0 31 17 31q10 0 30.5 -1t59.5 -5t95 -24.5t106.5 -62.5t86 -109.5t35.5 -166.5q0 -82 -24.5 -152.5t-53.5 -131.5q-31 -63 -58.5 -119.5t-27.5 -110.5q0 -41 5.5 -62.5t15.5 -35.5 q23 -31 78 -37q27 -4 26 -33q0 -41 -36 -41q-20 0 -37 -1t-37 -15q-45 -20 -77 -58t-36 -85t-4 -88t2 -83t2 -88t-6 -102q-10 -92 -52 -162.5t-102.5 -121t-130 -80t-137.5 -41.5q-31 -6 -55.5 -7t-38.5 -1q-35 -1 -35 28z" />
<glyph unicode="~" horiz-adv-x="1024" d="M127 309q0 86 18.5 150.5t50 105.5t73.5 61.5t91 20.5q35 0 67 -10t73 -33l86 -51q25 -16 56.5 -34.5t72.5 -18.5q57 0 75.5 42t18.5 132h129q0 -92 -17.5 -156.5t-46 -104.5t-67.5 -57.5t-84 -17.5q-47 0 -86 14.5t-84 38.5l-82 49q-18 10 -49 26.5t-66 16.5 q-47 -8 -73.5 -45t-26.5 -129h-129z" />
<glyph unicode="&#xa0;" d="M154 483q0 92 27.5 164t67.5 124t84 85t75 47q-41 53 -67 113.5t-26 130.5q0 57 21.5 110.5t62.5 94.5t101.5 65.5t138.5 24.5q100 0 166.5 -52.5t66.5 -162.5q0 -37 -12 -63.5t-29.5 -44t-37 -27t-31.5 -9.5t-6 37q4 27 -5.5 50.5t-27.5 42t-46 28.5t-61 10 q-29 0 -58.5 -12t-54 -34.5t-41 -58.5t-16.5 -81q0 -29 5.5 -68t27.5 -67q20 4 52 17.5t81 13.5q45 0 76 -16.5t31 -67.5q0 -47 -22.5 -73t-78.5 -26q-37 0 -77.5 19.5t-69.5 38.5q-10 12 -19.5 15t-27.5 -11q-45 -35 -73.5 -106.5t-28.5 -149.5q0 -188 148 -293t429 -105 q141 0 247.5 31t179.5 83t110 122t37 145q0 45 -18.5 90t-54.5 81t-90.5 58.5t-125.5 22.5q-68 0 -109 -20.5t-63.5 -48t-29.5 -59.5t-7 -52t7 -39.5t18.5 -35t22.5 -25t17 -9.5q8 0 15.5 9.5t3.5 21.5q-4 14 0 33.5t16 37t29.5 30t42.5 12.5q68 0 97.5 -29t29.5 -74 q0 -51 -33 -92t-129 -41q-41 0 -82 15.5t-72.5 46t-51 78t-19.5 112.5q0 61 24.5 116.5t70.5 98.5t111.5 67.5t147.5 24.5q37 0 67.5 -2t63.5 -5t70 -5t86 -2q47 0 90 11.5t74.5 34t50 56t18.5 78.5q0 20 -10 43t-27.5 41.5t-38 30.5t-40.5 12t-23.5 -15t0.5 -30 q4 -16 1 -35.5t-14.5 -38t-32 -31t-50.5 -12.5q-49 0 -78 31t-29 72q0 61 50.5 100t111.5 39q68 0 119 -18.5t85 -49t50 -71.5t16 -86q0 -160 -86 -247t-227 -110q-35 -6 -37 -20t8 -31q20 -31 37 -85t17 -140q0 -131 -54.5 -234.5t-147.5 -175t-220 -109.5t-273 -38 q-213 0 -351 53t-219 133t-112.5 172t-31.5 170zM362 373l14 -36q13 -36 63 -81t149.5 -82t271.5 -37q154 0 261.5 26.5t178 64.5t108.5 80t51.5 72t8 40t-21.5 -14q-25 -37 -62.5 -80t-103.5 -79t-167 -59.5t-255 -19.5q-154 2 -250 35t-151.5 69.5t-74.5 68.5zM362 1262 q23 31 52 57q25 23 61.5 43t83.5 27q47 6 91 0.5t79 -13.5t55 -16l21 -8l-18 17q-17 17 -52 33.5t-88 22t-129 -19.5q-49 -16 -79.5 -41t-47.5 -47q-21 -26 -29 -55zM536.5 935q-10.5 -7 20.5 -3q31 2 62.5 -9.5t53 -21.5t29 -10t-11.5 24q-18 25 -53 30t-62.5 1t-38 -11z M961 862q86 66 184 85.5t186 -3.5q111 -29 189.5 -23.5t131 28t79 52t35 50t-2 22.5t-32.5 -31q-35 -51 -91.5 -67.5t-123 -15t-138 10.5t-137.5 11t-119 -16.5t-89 -42t-55 -42t-17 -18.5zM1083 562.5q2 -15.5 13 -27.5q8 -10 8 -2t1 24t8 34.5t32 31.5q25 12 44 10 t31.5 -7t15.5 -7.5t-7 10.5q-18 18 -49 25.5t-60 -7.5q-14 -8 -23.5 -22.5t-12.5 -30.5t-1 -31.5zM1436 1223.5q2 -17.5 12 -29.5q8 -10 12 3t9.5 36.5t16.5 47.5t36 36t47 19t36.5 10.5t13.5 5.5t-24 6q-39 2 -62.5 -3t-47.5 -24q-18 -12 -30.5 -31.5t-16.5 -39t-2 -37z " />
<glyph unicode="&#xa1;" d="M154 483q0 92 27.5 164t67.5 124t84 85t75 47q-41 53 -67 113.5t-26 130.5q0 57 21.5 110.5t62.5 94.5t101.5 65.5t138.5 24.5q100 0 166.5 -52.5t66.5 -162.5q0 -37 -12 -63.5t-29.5 -44t-37 -27t-31.5 -9.5t-6 37q4 27 -5.5 50.5t-27.5 42t-46 28.5t-61 10 q-29 0 -58.5 -12t-54 -34.5t-41 -58.5t-16.5 -81q0 -29 5.5 -68t27.5 -67q20 4 52 17.5t81 13.5q45 0 76 -16.5t31 -67.5q0 -47 -22.5 -73t-78.5 -26q-37 0 -77.5 19.5t-69.5 38.5q-10 12 -19.5 15t-27.5 -11q-45 -35 -73.5 -106.5t-28.5 -149.5q0 -188 148 -293t429 -105 q141 0 247.5 31t179.5 83t110 122t37 145q0 45 -18.5 90t-54.5 81t-90.5 58.5t-125.5 22.5q-68 0 -109 -20.5t-63.5 -48t-29.5 -59.5t-7 -52t7 -39.5t18.5 -35t22.5 -25t17 -9.5q8 0 15.5 9.5t3.5 21.5q-4 14 0 33.5t16 37t29.5 30t42.5 12.5q68 0 97.5 -29t29.5 -74 q0 -51 -33 -92t-129 -41q-41 0 -82 15.5t-72.5 46t-51 78t-19.5 112.5q0 61 24.5 116.5t70.5 98.5t111.5 67.5t147.5 24.5q37 0 67.5 -2t63.5 -5t70 -5t86 -2q47 0 90 11.5t74.5 34t50 56t18.5 78.5q0 20 -10 43t-27.5 41.5t-38 30.5t-40.5 12t-23.5 -15t0.5 -30 q4 -16 1 -35.5t-14.5 -38t-32 -31t-50.5 -12.5q-49 0 -78 31t-29 72q0 61 50.5 100t111.5 39q68 0 119 -18.5t85 -49t50 -71.5t16 -86q0 -160 -86 -247t-227 -110q-35 -6 -37 -20t8 -31q20 -31 37 -85t17 -140q0 -131 -54.5 -234.5t-147.5 -175t-220 -109.5t-273 -38 q-213 0 -351 53t-219 133t-112.5 172t-31.5 170zM362 373l14 -36q13 -36 63 -81t149.5 -82t271.5 -37q154 0 261.5 26.5t178 64.5t108.5 80t51.5 72t8 40t-21.5 -14q-25 -37 -62.5 -80t-103.5 -79t-167 -59.5t-255 -19.5q-154 2 -250 35t-151.5 69.5t-74.5 68.5zM362 1262 q23 31 52 57q25 23 61.5 43t83.5 27q47 6 91 0.5t79 -13.5t55 -16l21 -8l-18 17q-17 17 -52 33.5t-88 22t-129 -19.5q-49 -16 -79.5 -41t-47.5 -47q-21 -26 -29 -55zM536.5 935q-10.5 -7 20.5 -3q31 2 62.5 -9.5t53 -21.5t29 -10t-11.5 24q-18 25 -53 30t-62.5 1t-38 -11z M961 862q86 66 184 85.5t186 -3.5q111 -29 189.5 -23.5t131 28t79 52t35 50t-2 22.5t-32.5 -31q-35 -51 -91.5 -67.5t-123 -15t-138 10.5t-137.5 11t-119 -16.5t-89 -42t-55 -42t-17 -18.5zM1083 562.5q2 -15.5 13 -27.5q8 -10 8 -2t1 24t8 34.5t32 31.5q25 12 44 10 t31.5 -7t15.5 -7.5t-7 10.5q-18 18 -49 25.5t-60 -7.5q-14 -8 -23.5 -22.5t-12.5 -30.5t-1 -31.5zM1436 1223.5q2 -17.5 12 -29.5q8 -10 12 3t9.5 36.5t16.5 47.5t36 36t47 19t36.5 10.5t13.5 5.5t-24 6q-39 2 -62.5 -3t-47.5 -24q-18 -12 -30.5 -31.5t-16.5 -39t-2 -37z " />
<glyph unicode="&#xa2;" d="M154 483q0 92 27.5 164t67.5 124t84 85t75 47q-41 53 -67 113.5t-26 130.5q0 57 21.5 110.5t62.5 94.5t101.5 65.5t138.5 24.5q100 0 166.5 -52.5t66.5 -162.5q0 -37 -12 -63.5t-29.5 -44t-37 -27t-31.5 -9.5t-6 37q4 27 -5.5 50.5t-27.5 42t-46 28.5t-61 10 q-29 0 -58.5 -12t-54 -34.5t-41 -58.5t-16.5 -81q0 -29 5.5 -68t27.5 -67q20 4 52 17.5t81 13.5q45 0 76 -16.5t31 -67.5q0 -47 -22.5 -73t-78.5 -26q-37 0 -77.5 19.5t-69.5 38.5q-10 12 -19.5 15t-27.5 -11q-45 -35 -73.5 -106.5t-28.5 -149.5q0 -188 148 -293t429 -105 q141 0 247.5 31t179.5 83t110 122t37 145q0 45 -18.5 90t-54.5 81t-90.5 58.5t-125.5 22.5q-68 0 -109 -20.5t-63.5 -48t-29.5 -59.5t-7 -52t7 -39.5t18.5 -35t22.5 -25t17 -9.5q8 0 15.5 9.5t3.5 21.5q-4 14 0 33.5t16 37t29.5 30t42.5 12.5q68 0 97.5 -29t29.5 -74 q0 -51 -33 -92t-129 -41q-41 0 -82 15.5t-72.5 46t-51 78t-19.5 112.5q0 61 24.5 116.5t70.5 98.5t111.5 67.5t147.5 24.5q37 0 67.5 -2t63.5 -5t70 -5t86 -2q47 0 90 11.5t74.5 34t50 56t18.5 78.5q0 20 -10 43t-27.5 41.5t-38 30.5t-40.5 12t-23.5 -15t0.5 -30 q4 -16 1 -35.5t-14.5 -38t-32 -31t-50.5 -12.5q-49 0 -78 31t-29 72q0 61 50.5 100t111.5 39q68 0 119 -18.5t85 -49t50 -71.5t16 -86q0 -160 -86 -247t-227 -110q-35 -6 -37 -20t8 -31q20 -31 37 -85t17 -140q0 -131 -54.5 -234.5t-147.5 -175t-220 -109.5t-273 -38 q-213 0 -351 53t-219 133t-112.5 172t-31.5 170zM362 373l14 -36q13 -36 63 -81t149.5 -82t271.5 -37q154 0 261.5 26.5t178 64.5t108.5 80t51.5 72t8 40t-21.5 -14q-25 -37 -62.5 -80t-103.5 -79t-167 -59.5t-255 -19.5q-154 2 -250 35t-151.5 69.5t-74.5 68.5zM362 1262 q23 31 52 57q25 23 61.5 43t83.5 27q47 6 91 0.5t79 -13.5t55 -16l21 -8l-18 17q-17 17 -52 33.5t-88 22t-129 -19.5q-49 -16 -79.5 -41t-47.5 -47q-21 -26 -29 -55zM536.5 935q-10.5 -7 20.5 -3q31 2 62.5 -9.5t53 -21.5t29 -10t-11.5 24q-18 25 -53 30t-62.5 1t-38 -11z M961 862q86 66 184 85.5t186 -3.5q111 -29 189.5 -23.5t131 28t79 52t35 50t-2 22.5t-32.5 -31q-35 -51 -91.5 -67.5t-123 -15t-138 10.5t-137.5 11t-119 -16.5t-89 -42t-55 -42t-17 -18.5zM1083 562.5q2 -15.5 13 -27.5q8 -10 8 -2t1 24t8 34.5t32 31.5q25 12 44 10 t31.5 -7t15.5 -7.5t-7 10.5q-18 18 -49 25.5t-60 -7.5q-14 -8 -23.5 -22.5t-12.5 -30.5t-1 -31.5zM1436 1223.5q2 -17.5 12 -29.5q8 -10 12 3t9.5 36.5t16.5 47.5t36 36t47 19t36.5 10.5t13.5 5.5t-24 6q-39 2 -62.5 -3t-47.5 -24q-18 -12 -30.5 -31.5t-16.5 -39t-2 -37z " />
<glyph unicode="&#xa3;" d="M154 483q0 92 27.5 164t67.5 124t84 85t75 47q-41 53 -67 113.5t-26 130.5q0 57 21.5 110.5t62.5 94.5t101.5 65.5t138.5 24.5q100 0 166.5 -52.5t66.5 -162.5q0 -37 -12 -63.5t-29.5 -44t-37 -27t-31.5 -9.5t-6 37q4 27 -5.5 50.5t-27.5 42t-46 28.5t-61 10 q-29 0 -58.5 -12t-54 -34.5t-41 -58.5t-16.5 -81q0 -29 5.5 -68t27.5 -67q20 4 52 17.5t81 13.5q45 0 76 -16.5t31 -67.5q0 -47 -22.5 -73t-78.5 -26q-37 0 -77.5 19.5t-69.5 38.5q-10 12 -19.5 15t-27.5 -11q-45 -35 -73.5 -106.5t-28.5 -149.5q0 -188 148 -293t429 -105 q141 0 247.5 31t179.5 83t110 122t37 145q0 45 -18.5 90t-54.5 81t-90.5 58.5t-125.5 22.5q-68 0 -109 -20.5t-63.5 -48t-29.5 -59.5t-7 -52t7 -39.5t18.5 -35t22.5 -25t17 -9.5q8 0 15.5 9.5t3.5 21.5q-4 14 0 33.5t16 37t29.5 30t42.5 12.5q68 0 97.5 -29t29.5 -74 q0 -51 -33 -92t-129 -41q-41 0 -82 15.5t-72.5 46t-51 78t-19.5 112.5q0 61 24.5 116.5t70.5 98.5t111.5 67.5t147.5 24.5q37 0 67.5 -2t63.5 -5t70 -5t86 -2q47 0 90 11.5t74.5 34t50 56t18.5 78.5q0 20 -10 43t-27.5 41.5t-38 30.5t-40.5 12t-23.5 -15t0.5 -30 q4 -16 1 -35.5t-14.5 -38t-32 -31t-50.5 -12.5q-49 0 -78 31t-29 72q0 61 50.5 100t111.5 39q68 0 119 -18.5t85 -49t50 -71.5t16 -86q0 -160 -86 -247t-227 -110q-35 -6 -37 -20t8 -31q20 -31 37 -85t17 -140q0 -131 -54.5 -234.5t-147.5 -175t-220 -109.5t-273 -38 q-213 0 -351 53t-219 133t-112.5 172t-31.5 170zM362 373l14 -36q13 -36 63 -81t149.5 -82t271.5 -37q154 0 261.5 26.5t178 64.5t108.5 80t51.5 72t8 40t-21.5 -14q-25 -37 -62.5 -80t-103.5 -79t-167 -59.5t-255 -19.5q-154 2 -250 35t-151.5 69.5t-74.5 68.5zM362 1262 q23 31 52 57q25 23 61.5 43t83.5 27q47 6 91 0.5t79 -13.5t55 -16l21 -8l-18 17q-17 17 -52 33.5t-88 22t-129 -19.5q-49 -16 -79.5 -41t-47.5 -47q-21 -26 -29 -55zM536.5 935q-10.5 -7 20.5 -3q31 2 62.5 -9.5t53 -21.5t29 -10t-11.5 24q-18 25 -53 30t-62.5 1t-38 -11z M961 862q86 66 184 85.5t186 -3.5q111 -29 189.5 -23.5t131 28t79 52t35 50t-2 22.5t-32.5 -31q-35 -51 -91.5 -67.5t-123 -15t-138 10.5t-137.5 11t-119 -16.5t-89 -42t-55 -42t-17 -18.5zM1083 562.5q2 -15.5 13 -27.5q8 -10 8 -2t1 24t8 34.5t32 31.5q25 12 44 10 t31.5 -7t15.5 -7.5t-7 10.5q-18 18 -49 25.5t-60 -7.5q-14 -8 -23.5 -22.5t-12.5 -30.5t-1 -31.5zM1436 1223.5q2 -17.5 12 -29.5q8 -10 12 3t9.5 36.5t16.5 47.5t36 36t47 19t36.5 10.5t13.5 5.5t-24 6q-39 2 -62.5 -3t-47.5 -24q-18 -12 -30.5 -31.5t-16.5 -39t-2 -37z " />
<glyph unicode="&#xa4;" d="M154 483q0 92 27.5 164t67.5 124t84 85t75 47q-41 53 -67 113.5t-26 130.5q0 57 21.5 110.5t62.5 94.5t101.5 65.5t138.5 24.5q100 0 166.5 -52.5t66.5 -162.5q0 -37 -12 -63.5t-29.5 -44t-37 -27t-31.5 -9.5t-6 37q4 27 -5.5 50.5t-27.5 42t-46 28.5t-61 10 q-29 0 -58.5 -12t-54 -34.5t-41 -58.5t-16.5 -81q0 -29 5.5 -68t27.5 -67q20 4 52 17.5t81 13.5q45 0 76 -16.5t31 -67.5q0 -47 -22.5 -73t-78.5 -26q-37 0 -77.5 19.5t-69.5 38.5q-10 12 -19.5 15t-27.5 -11q-45 -35 -73.5 -106.5t-28.5 -149.5q0 -188 148 -293t429 -105 q141 0 247.5 31t179.5 83t110 122t37 145q0 45 -18.5 90t-54.5 81t-90.5 58.5t-125.5 22.5q-68 0 -109 -20.5t-63.5 -48t-29.5 -59.5t-7 -52t7 -39.5t18.5 -35t22.5 -25t17 -9.5q8 0 15.5 9.5t3.5 21.5q-4 14 0 33.5t16 37t29.5 30t42.5 12.5q68 0 97.5 -29t29.5 -74 q0 -51 -33 -92t-129 -41q-41 0 -82 15.5t-72.5 46t-51 78t-19.5 112.5q0 61 24.5 116.5t70.5 98.5t111.5 67.5t147.5 24.5q37 0 67.5 -2t63.5 -5t70 -5t86 -2q47 0 90 11.5t74.5 34t50 56t18.5 78.5q0 20 -10 43t-27.5 41.5t-38 30.5t-40.5 12t-23.5 -15t0.5 -30 q4 -16 1 -35.5t-14.5 -38t-32 -31t-50.5 -12.5q-49 0 -78 31t-29 72q0 61 50.5 100t111.5 39q68 0 119 -18.5t85 -49t50 -71.5t16 -86q0 -160 -86 -247t-227 -110q-35 -6 -37 -20t8 -31q20 -31 37 -85t17 -140q0 -131 -54.5 -234.5t-147.5 -175t-220 -109.5t-273 -38 q-213 0 -351 53t-219 133t-112.5 172t-31.5 170zM362 373l14 -36q13 -36 63 -81t149.5 -82t271.5 -37q154 0 261.5 26.5t178 64.5t108.5 80t51.5 72t8 40t-21.5 -14q-25 -37 -62.5 -80t-103.5 -79t-167 -59.5t-255 -19.5q-154 2 -250 35t-151.5 69.5t-74.5 68.5zM362 1262 q23 31 52 57q25 23 61.5 43t83.5 27q47 6 91 0.5t79 -13.5t55 -16l21 -8l-18 17q-17 17 -52 33.5t-88 22t-129 -19.5q-49 -16 -79.5 -41t-47.5 -47q-21 -26 -29 -55zM536.5 935q-10.5 -7 20.5 -3q31 2 62.5 -9.5t53 -21.5t29 -10t-11.5 24q-18 25 -53 30t-62.5 1t-38 -11z M961 862q86 66 184 85.5t186 -3.5q111 -29 189.5 -23.5t131 28t79 52t35 50t-2 22.5t-32.5 -31q-35 -51 -91.5 -67.5t-123 -15t-138 10.5t-137.5 11t-119 -16.5t-89 -42t-55 -42t-17 -18.5zM1083 562.5q2 -15.5 13 -27.5q8 -10 8 -2t1 24t8 34.5t32 31.5q25 12 44 10 t31.5 -7t15.5 -7.5t-7 10.5q-18 18 -49 25.5t-60 -7.5q-14 -8 -23.5 -22.5t-12.5 -30.5t-1 -31.5zM1436 1223.5q2 -17.5 12 -29.5q8 -10 12 3t9.5 36.5t16.5 47.5t36 36t47 19t36.5 10.5t13.5 5.5t-24 6q-39 2 -62.5 -3t-47.5 -24q-18 -12 -30.5 -31.5t-16.5 -39t-2 -37z " />
<glyph unicode="&#xa5;" d="M154 483q0 92 27.5 164t67.5 124t84 85t75 47q-41 53 -67 113.5t-26 130.5q0 57 21.5 110.5t62.5 94.5t101.5 65.5t138.5 24.5q100 0 166.5 -52.5t66.5 -162.5q0 -37 -12 -63.5t-29.5 -44t-37 -27t-31.5 -9.5t-6 37q4 27 -5.5 50.5t-27.5 42t-46 28.5t-61 10 q-29 0 -58.5 -12t-54 -34.5t-41 -58.5t-16.5 -81q0 -29 5.5 -68t27.5 -67q20 4 52 17.5t81 13.5q45 0 76 -16.5t31 -67.5q0 -47 -22.5 -73t-78.5 -26q-37 0 -77.5 19.5t-69.5 38.5q-10 12 -19.5 15t-27.5 -11q-45 -35 -73.5 -106.5t-28.5 -149.5q0 -188 148 -293t429 -105 q141 0 247.5 31t179.5 83t110 122t37 145q0 45 -18.5 90t-54.5 81t-90.5 58.5t-125.5 22.5q-68 0 -109 -20.5t-63.5 -48t-29.5 -59.5t-7 -52t7 -39.5t18.5 -35t22.5 -25t17 -9.5q8 0 15.5 9.5t3.5 21.5q-4 14 0 33.5t16 37t29.5 30t42.5 12.5q68 0 97.5 -29t29.5 -74 q0 -51 -33 -92t-129 -41q-41 0 -82 15.5t-72.5 46t-51 78t-19.5 112.5q0 61 24.5 116.5t70.5 98.5t111.5 67.5t147.5 24.5q37 0 67.5 -2t63.5 -5t70 -5t86 -2q47 0 90 11.5t74.5 34t50 56t18.5 78.5q0 20 -10 43t-27.5 41.5t-38 30.5t-40.5 12t-23.5 -15t0.5 -30 q4 -16 1 -35.5t-14.5 -38t-32 -31t-50.5 -12.5q-49 0 -78 31t-29 72q0 61 50.5 100t111.5 39q68 0 119 -18.5t85 -49t50 -71.5t16 -86q0 -160 -86 -247t-227 -110q-35 -6 -37 -20t8 -31q20 -31 37 -85t17 -140q0 -131 -54.5 -234.5t-147.5 -175t-220 -109.5t-273 -38 q-213 0 -351 53t-219 133t-112.5 172t-31.5 170zM362 373l14 -36q13 -36 63 -81t149.5 -82t271.5 -37q154 0 261.5 26.5t178 64.5t108.5 80t51.5 72t8 40t-21.5 -14q-25 -37 -62.5 -80t-103.5 -79t-167 -59.5t-255 -19.5q-154 2 -250 35t-151.5 69.5t-74.5 68.5zM362 1262 q23 31 52 57q25 23 61.5 43t83.5 27q47 6 91 0.5t79 -13.5t55 -16l21 -8l-18 17q-17 17 -52 33.5t-88 22t-129 -19.5q-49 -16 -79.5 -41t-47.5 -47q-21 -26 -29 -55zM536.5 935q-10.5 -7 20.5 -3q31 2 62.5 -9.5t53 -21.5t29 -10t-11.5 24q-18 25 -53 30t-62.5 1t-38 -11z M961 862q86 66 184 85.5t186 -3.5q111 -29 189.5 -23.5t131 28t79 52t35 50t-2 22.5t-32.5 -31q-35 -51 -91.5 -67.5t-123 -15t-138 10.5t-137.5 11t-119 -16.5t-89 -42t-55 -42t-17 -18.5zM1083 562.5q2 -15.5 13 -27.5q8 -10 8 -2t1 24t8 34.5t32 31.5q25 12 44 10 t31.5 -7t15.5 -7.5t-7 10.5q-18 18 -49 25.5t-60 -7.5q-14 -8 -23.5 -22.5t-12.5 -30.5t-1 -31.5zM1436 1223.5q2 -17.5 12 -29.5q8 -10 12 3t9.5 36.5t16.5 47.5t36 36t47 19t36.5 10.5t13.5 5.5t-24 6q-39 2 -62.5 -3t-47.5 -24q-18 -12 -30.5 -31.5t-16.5 -39t-2 -37z " />
<glyph unicode="&#xa6;" d="M154 483q0 92 27.5 164t67.5 124t84 85t75 47q-41 53 -67 113.5t-26 130.5q0 57 21.5 110.5t62.5 94.5t101.5 65.5t138.5 24.5q100 0 166.5 -52.5t66.5 -162.5q0 -37 -12 -63.5t-29.5 -44t-37 -27t-31.5 -9.5t-6 37q4 27 -5.5 50.5t-27.5 42t-46 28.5t-61 10 q-29 0 -58.5 -12t-54 -34.5t-41 -58.5t-16.5 -81q0 -29 5.5 -68t27.5 -67q20 4 52 17.5t81 13.5q45 0 76 -16.5t31 -67.5q0 -47 -22.5 -73t-78.5 -26q-37 0 -77.5 19.5t-69.5 38.5q-10 12 -19.5 15t-27.5 -11q-45 -35 -73.5 -106.5t-28.5 -149.5q0 -188 148 -293t429 -105 q141 0 247.5 31t179.5 83t110 122t37 145q0 45 -18.5 90t-54.5 81t-90.5 58.5t-125.5 22.5q-68 0 -109 -20.5t-63.5 -48t-29.5 -59.5t-7 -52t7 -39.5t18.5 -35t22.5 -25t17 -9.5q8 0 15.5 9.5t3.5 21.5q-4 14 0 33.5t16 37t29.5 30t42.5 12.5q68 0 97.5 -29t29.5 -74 q0 -51 -33 -92t-129 -41q-41 0 -82 15.5t-72.5 46t-51 78t-19.5 112.5q0 61 24.5 116.5t70.5 98.5t111.5 67.5t147.5 24.5q37 0 67.5 -2t63.5 -5t70 -5t86 -2q47 0 90 11.5t74.5 34t50 56t18.5 78.5q0 20 -10 43t-27.5 41.5t-38 30.5t-40.5 12t-23.5 -15t0.5 -30 q4 -16 1 -35.5t-14.5 -38t-32 -31t-50.5 -12.5q-49 0 -78 31t-29 72q0 61 50.5 100t111.5 39q68 0 119 -18.5t85 -49t50 -71.5t16 -86q0 -160 -86 -247t-227 -110q-35 -6 -37 -20t8 -31q20 -31 37 -85t17 -140q0 -131 -54.5 -234.5t-147.5 -175t-220 -109.5t-273 -38 q-213 0 -351 53t-219 133t-112.5 172t-31.5 170zM362 373l14 -36q13 -36 63 -81t149.5 -82t271.5 -37q154 0 261.5 26.5t178 64.5t108.5 80t51.5 72t8 40t-21.5 -14q-25 -37 -62.5 -80t-103.5 -79t-167 -59.5t-255 -19.5q-154 2 -250 35t-151.5 69.5t-74.5 68.5zM362 1262 q23 31 52 57q25 23 61.5 43t83.5 27q47 6 91 0.5t79 -13.5t55 -16l21 -8l-18 17q-17 17 -52 33.5t-88 22t-129 -19.5q-49 -16 -79.5 -41t-47.5 -47q-21 -26 -29 -55zM536.5 935q-10.5 -7 20.5 -3q31 2 62.5 -9.5t53 -21.5t29 -10t-11.5 24q-18 25 -53 30t-62.5 1t-38 -11z M961 862q86 66 184 85.5t186 -3.5q111 -29 189.5 -23.5t131 28t79 52t35 50t-2 22.5t-32.5 -31q-35 -51 -91.5 -67.5t-123 -15t-138 10.5t-137.5 11t-119 -16.5t-89 -42t-55 -42t-17 -18.5zM1083 562.5q2 -15.5 13 -27.5q8 -10 8 -2t1 24t8 34.5t32 31.5q25 12 44 10 t31.5 -7t15.5 -7.5t-7 10.5q-18 18 -49 25.5t-60 -7.5q-14 -8 -23.5 -22.5t-12.5 -30.5t-1 -31.5zM1436 1223.5q2 -17.5 12 -29.5q8 -10 12 3t9.5 36.5t16.5 47.5t36 36t47 19t36.5 10.5t13.5 5.5t-24 6q-39 2 -62.5 -3t-47.5 -24q-18 -12 -30.5 -31.5t-16.5 -39t-2 -37z " />
<glyph unicode="&#xa7;" d="M154 483q0 92 27.5 164t67.5 124t84 85t75 47q-41 53 -67 113.5t-26 130.5q0 57 21.5 110.5t62.5 94.5t101.5 65.5t138.5 24.5q100 0 166.5 -52.5t66.5 -162.5q0 -37 -12 -63.5t-29.5 -44t-37 -27t-31.5 -9.5t-6 37q4 27 -5.5 50.5t-27.5 42t-46 28.5t-61 10 q-29 0 -58.5 -12t-54 -34.5t-41 -58.5t-16.5 -81q0 -29 5.5 -68t27.5 -67q20 4 52 17.5t81 13.5q45 0 76 -16.5t31 -67.5q0 -47 -22.5 -73t-78.5 -26q-37 0 -77.5 19.5t-69.5 38.5q-10 12 -19.5 15t-27.5 -11q-45 -35 -73.5 -106.5t-28.5 -149.5q0 -188 148 -293t429 -105 q141 0 247.5 31t179.5 83t110 122t37 145q0 45 -18.5 90t-54.5 81t-90.5 58.5t-125.5 22.5q-68 0 -109 -20.5t-63.5 -48t-29.5 -59.5t-7 -52t7 -39.5t18.5 -35t22.5 -25t17 -9.5q8 0 15.5 9.5t3.5 21.5q-4 14 0 33.5t16 37t29.5 30t42.5 12.5q68 0 97.5 -29t29.5 -74 q0 -51 -33 -92t-129 -41q-41 0 -82 15.5t-72.5 46t-51 78t-19.5 112.5q0 61 24.5 116.5t70.5 98.5t111.5 67.5t147.5 24.5q37 0 67.5 -2t63.5 -5t70 -5t86 -2q47 0 90 11.5t74.5 34t50 56t18.5 78.5q0 20 -10 43t-27.5 41.5t-38 30.5t-40.5 12t-23.5 -15t0.5 -30 q4 -16 1 -35.5t-14.5 -38t-32 -31t-50.5 -12.5q-49 0 -78 31t-29 72q0 61 50.5 100t111.5 39q68 0 119 -18.5t85 -49t50 -71.5t16 -86q0 -160 -86 -247t-227 -110q-35 -6 -37 -20t8 -31q20 -31 37 -85t17 -140q0 -131 -54.5 -234.5t-147.5 -175t-220 -109.5t-273 -38 q-213 0 -351 53t-219 133t-112.5 172t-31.5 170zM362 373l14 -36q13 -36 63 -81t149.5 -82t271.5 -37q154 0 261.5 26.5t178 64.5t108.5 80t51.5 72t8 40t-21.5 -14q-25 -37 -62.5 -80t-103.5 -79t-167 -59.5t-255 -19.5q-154 2 -250 35t-151.5 69.5t-74.5 68.5zM362 1262 q23 31 52 57q25 23 61.5 43t83.5 27q47 6 91 0.5t79 -13.5t55 -16l21 -8l-18 17q-17 17 -52 33.5t-88 22t-129 -19.5q-49 -16 -79.5 -41t-47.5 -47q-21 -26 -29 -55zM536.5 935q-10.5 -7 20.5 -3q31 2 62.5 -9.5t53 -21.5t29 -10t-11.5 24q-18 25 -53 30t-62.5 1t-38 -11z M961 862q86 66 184 85.5t186 -3.5q111 -29 189.5 -23.5t131 28t79 52t35 50t-2 22.5t-32.5 -31q-35 -51 -91.5 -67.5t-123 -15t-138 10.5t-137.5 11t-119 -16.5t-89 -42t-55 -42t-17 -18.5zM1083 562.5q2 -15.5 13 -27.5q8 -10 8 -2t1 24t8 34.5t32 31.5q25 12 44 10 t31.5 -7t15.5 -7.5t-7 10.5q-18 18 -49 25.5t-60 -7.5q-14 -8 -23.5 -22.5t-12.5 -30.5t-1 -31.5zM1436 1223.5q2 -17.5 12 -29.5q8 -10 12 3t9.5 36.5t16.5 47.5t36 36t47 19t36.5 10.5t13.5 5.5t-24 6q-39 2 -62.5 -3t-47.5 -24q-18 -12 -30.5 -31.5t-16.5 -39t-2 -37z " />
<glyph unicode="&#xa8;" d="M154 483q0 92 27.5 164t67.5 124t84 85t75 47q-41 53 -67 113.5t-26 130.5q0 57 21.5 110.5t62.5 94.5t101.5 65.5t138.5 24.5q100 0 166.5 -52.5t66.5 -162.5q0 -37 -12 -63.5t-29.5 -44t-37 -27t-31.5 -9.5t-6 37q4 27 -5.5 50.5t-27.5 42t-46 28.5t-61 10 q-29 0 -58.5 -12t-54 -34.5t-41 -58.5t-16.5 -81q0 -29 5.5 -68t27.5 -67q20 4 52 17.5t81 13.5q45 0 76 -16.5t31 -67.5q0 -47 -22.5 -73t-78.5 -26q-37 0 -77.5 19.5t-69.5 38.5q-10 12 -19.5 15t-27.5 -11q-45 -35 -73.5 -106.5t-28.5 -149.5q0 -188 148 -293t429 -105 q141 0 247.5 31t179.5 83t110 122t37 145q0 45 -18.5 90t-54.5 81t-90.5 58.5t-125.5 22.5q-68 0 -109 -20.5t-63.5 -48t-29.5 -59.5t-7 -52t7 -39.5t18.5 -35t22.5 -25t17 -9.5q8 0 15.5 9.5t3.5 21.5q-4 14 0 33.5t16 37t29.5 30t42.5 12.5q68 0 97.5 -29t29.5 -74 q0 -51 -33 -92t-129 -41q-41 0 -82 15.5t-72.5 46t-51 78t-19.5 112.5q0 61 24.5 116.5t70.5 98.5t111.5 67.5t147.5 24.5q37 0 67.5 -2t63.5 -5t70 -5t86 -2q47 0 90 11.5t74.5 34t50 56t18.5 78.5q0 20 -10 43t-27.5 41.5t-38 30.5t-40.5 12t-23.5 -15t0.5 -30 q4 -16 1 -35.5t-14.5 -38t-32 -31t-50.5 -12.5q-49 0 -78 31t-29 72q0 61 50.5 100t111.5 39q68 0 119 -18.5t85 -49t50 -71.5t16 -86q0 -160 -86 -247t-227 -110q-35 -6 -37 -20t8 -31q20 -31 37 -85t17 -140q0 -131 -54.5 -234.5t-147.5 -175t-220 -109.5t-273 -38 q-213 0 -351 53t-219 133t-112.5 172t-31.5 170zM362 373l14 -36q13 -36 63 -81t149.5 -82t271.5 -37q154 0 261.5 26.5t178 64.5t108.5 80t51.5 72t8 40t-21.5 -14q-25 -37 -62.5 -80t-103.5 -79t-167 -59.5t-255 -19.5q-154 2 -250 35t-151.5 69.5t-74.5 68.5zM362 1262 q23 31 52 57q25 23 61.5 43t83.5 27q47 6 91 0.5t79 -13.5t55 -16l21 -8l-18 17q-17 17 -52 33.5t-88 22t-129 -19.5q-49 -16 -79.5 -41t-47.5 -47q-21 -26 -29 -55zM536.5 935q-10.5 -7 20.5 -3q31 2 62.5 -9.5t53 -21.5t29 -10t-11.5 24q-18 25 -53 30t-62.5 1t-38 -11z M961 862q86 66 184 85.5t186 -3.5q111 -29 189.5 -23.5t131 28t79 52t35 50t-2 22.5t-32.5 -31q-35 -51 -91.5 -67.5t-123 -15t-138 10.5t-137.5 11t-119 -16.5t-89 -42t-55 -42t-17 -18.5zM1083 562.5q2 -15.5 13 -27.5q8 -10 8 -2t1 24t8 34.5t32 31.5q25 12 44 10 t31.5 -7t15.5 -7.5t-7 10.5q-18 18 -49 25.5t-60 -7.5q-14 -8 -23.5 -22.5t-12.5 -30.5t-1 -31.5zM1436 1223.5q2 -17.5 12 -29.5q8 -10 12 3t9.5 36.5t16.5 47.5t36 36t47 19t36.5 10.5t13.5 5.5t-24 6q-39 2 -62.5 -3t-47.5 -24q-18 -12 -30.5 -31.5t-16.5 -39t-2 -37z " />
<glyph unicode="&#xa9;" d="M154 483q0 92 27.5 164t67.5 124t84 85t75 47q-41 53 -67 113.5t-26 130.5q0 57 21.5 110.5t62.5 94.5t101.5 65.5t138.5 24.5q100 0 166.5 -52.5t66.5 -162.5q0 -37 -12 -63.5t-29.5 -44t-37 -27t-31.5 -9.5t-6 37q4 27 -5.5 50.5t-27.5 42t-46 28.5t-61 10 q-29 0 -58.5 -12t-54 -34.5t-41 -58.5t-16.5 -81q0 -29 5.5 -68t27.5 -67q20 4 52 17.5t81 13.5q45 0 76 -16.5t31 -67.5q0 -47 -22.5 -73t-78.5 -26q-37 0 -77.5 19.5t-69.5 38.5q-10 12 -19.5 15t-27.5 -11q-45 -35 -73.5 -106.5t-28.5 -149.5q0 -188 148 -293t429 -105 q141 0 247.5 31t179.5 83t110 122t37 145q0 45 -18.5 90t-54.5 81t-90.5 58.5t-125.5 22.5q-68 0 -109 -20.5t-63.5 -48t-29.5 -59.5t-7 -52t7 -39.5t18.5 -35t22.5 -25t17 -9.5q8 0 15.5 9.5t3.5 21.5q-4 14 0 33.5t16 37t29.5 30t42.5 12.5q68 0 97.5 -29t29.5 -74 q0 -51 -33 -92t-129 -41q-41 0 -82 15.5t-72.5 46t-51 78t-19.5 112.5q0 61 24.5 116.5t70.5 98.5t111.5 67.5t147.5 24.5q37 0 67.5 -2t63.5 -5t70 -5t86 -2q47 0 90 11.5t74.5 34t50 56t18.5 78.5q0 20 -10 43t-27.5 41.5t-38 30.5t-40.5 12t-23.5 -15t0.5 -30 q4 -16 1 -35.5t-14.5 -38t-32 -31t-50.5 -12.5q-49 0 -78 31t-29 72q0 61 50.5 100t111.5 39q68 0 119 -18.5t85 -49t50 -71.5t16 -86q0 -160 -86 -247t-227 -110q-35 -6 -37 -20t8 -31q20 -31 37 -85t17 -140q0 -131 -54.5 -234.5t-147.5 -175t-220 -109.5t-273 -38 q-213 0 -351 53t-219 133t-112.5 172t-31.5 170zM362 373l14 -36q13 -36 63 -81t149.5 -82t271.5 -37q154 0 261.5 26.5t178 64.5t108.5 80t51.5 72t8 40t-21.5 -14q-25 -37 -62.5 -80t-103.5 -79t-167 -59.5t-255 -19.5q-154 2 -250 35t-151.5 69.5t-74.5 68.5zM362 1262 q23 31 52 57q25 23 61.5 43t83.5 27q47 6 91 0.5t79 -13.5t55 -16l21 -8l-18 17q-17 17 -52 33.5t-88 22t-129 -19.5q-49 -16 -79.5 -41t-47.5 -47q-21 -26 -29 -55zM536.5 935q-10.5 -7 20.5 -3q31 2 62.5 -9.5t53 -21.5t29 -10t-11.5 24q-18 25 -53 30t-62.5 1t-38 -11z M961 862q86 66 184 85.5t186 -3.5q111 -29 189.5 -23.5t131 28t79 52t35 50t-2 22.5t-32.5 -31q-35 -51 -91.5 -67.5t-123 -15t-138 10.5t-137.5 11t-119 -16.5t-89 -42t-55 -42t-17 -18.5zM1083 562.5q2 -15.5 13 -27.5q8 -10 8 -2t1 24t8 34.5t32 31.5q25 12 44 10 t31.5 -7t15.5 -7.5t-7 10.5q-18 18 -49 25.5t-60 -7.5q-14 -8 -23.5 -22.5t-12.5 -30.5t-1 -31.5zM1436 1223.5q2 -17.5 12 -29.5q8 -10 12 3t9.5 36.5t16.5 47.5t36 36t47 19t36.5 10.5t13.5 5.5t-24 6q-39 2 -62.5 -3t-47.5 -24q-18 -12 -30.5 -31.5t-16.5 -39t-2 -37z " />
<glyph unicode="&#xaa;" d="M154 483q0 92 27.5 164t67.5 124t84 85t75 47q-41 53 -67 113.5t-26 130.5q0 57 21.5 110.5t62.5 94.5t101.5 65.5t138.5 24.5q100 0 166.5 -52.5t66.5 -162.5q0 -37 -12 -63.5t-29.5 -44t-37 -27t-31.5 -9.5t-6 37q4 27 -5.5 50.5t-27.5 42t-46 28.5t-61 10 q-29 0 -58.5 -12t-54 -34.5t-41 -58.5t-16.5 -81q0 -29 5.5 -68t27.5 -67q20 4 52 17.5t81 13.5q45 0 76 -16.5t31 -67.5q0 -47 -22.5 -73t-78.5 -26q-37 0 -77.5 19.5t-69.5 38.5q-10 12 -19.5 15t-27.5 -11q-45 -35 -73.5 -106.5t-28.5 -149.5q0 -188 148 -293t429 -105 q141 0 247.5 31t179.5 83t110 122t37 145q0 45 -18.5 90t-54.5 81t-90.5 58.5t-125.5 22.5q-68 0 -109 -20.5t-63.5 -48t-29.5 -59.5t-7 -52t7 -39.5t18.5 -35t22.5 -25t17 -9.5q8 0 15.5 9.5t3.5 21.5q-4 14 0 33.5t16 37t29.5 30t42.5 12.5q68 0 97.5 -29t29.5 -74 q0 -51 -33 -92t-129 -41q-41 0 -82 15.5t-72.5 46t-51 78t-19.5 112.5q0 61 24.5 116.5t70.5 98.5t111.5 67.5t147.5 24.5q37 0 67.5 -2t63.5 -5t70 -5t86 -2q47 0 90 11.5t74.5 34t50 56t18.5 78.5q0 20 -10 43t-27.5 41.5t-38 30.5t-40.5 12t-23.5 -15t0.5 -30 q4 -16 1 -35.5t-14.5 -38t-32 -31t-50.5 -12.5q-49 0 -78 31t-29 72q0 61 50.5 100t111.5 39q68 0 119 -18.5t85 -49t50 -71.5t16 -86q0 -160 -86 -247t-227 -110q-35 -6 -37 -20t8 -31q20 -31 37 -85t17 -140q0 -131 -54.5 -234.5t-147.5 -175t-220 -109.5t-273 -38 q-213 0 -351 53t-219 133t-112.5 172t-31.5 170zM362 373l14 -36q13 -36 63 -81t149.5 -82t271.5 -37q154 0 261.5 26.5t178 64.5t108.5 80t51.5 72t8 40t-21.5 -14q-25 -37 -62.5 -80t-103.5 -79t-167 -59.5t-255 -19.5q-154 2 -250 35t-151.5 69.5t-74.5 68.5zM362 1262 q23 31 52 57q25 23 61.5 43t83.5 27q47 6 91 0.5t79 -13.5t55 -16l21 -8l-18 17q-17 17 -52 33.5t-88 22t-129 -19.5q-49 -16 -79.5 -41t-47.5 -47q-21 -26 -29 -55zM536.5 935q-10.5 -7 20.5 -3q31 2 62.5 -9.5t53 -21.5t29 -10t-11.5 24q-18 25 -53 30t-62.5 1t-38 -11z M961 862q86 66 184 85.5t186 -3.5q111 -29 189.5 -23.5t131 28t79 52t35 50t-2 22.5t-32.5 -31q-35 -51 -91.5 -67.5t-123 -15t-138 10.5t-137.5 11t-119 -16.5t-89 -42t-55 -42t-17 -18.5zM1083 562.5q2 -15.5 13 -27.5q8 -10 8 -2t1 24t8 34.5t32 31.5q25 12 44 10 t31.5 -7t15.5 -7.5t-7 10.5q-18 18 -49 25.5t-60 -7.5q-14 -8 -23.5 -22.5t-12.5 -30.5t-1 -31.5zM1436 1223.5q2 -17.5 12 -29.5q8 -10 12 3t9.5 36.5t16.5 47.5t36 36t47 19t36.5 10.5t13.5 5.5t-24 6q-39 2 -62.5 -3t-47.5 -24q-18 -12 -30.5 -31.5t-16.5 -39t-2 -37z " />
<glyph unicode="&#xab;" d="M154 483q0 92 27.5 164t67.5 124t84 85t75 47q-41 53 -67 113.5t-26 130.5q0 57 21.5 110.5t62.5 94.5t101.5 65.5t138.5 24.5q100 0 166.5 -52.5t66.5 -162.5q0 -37 -12 -63.5t-29.5 -44t-37 -27t-31.5 -9.5t-6 37q4 27 -5.5 50.5t-27.5 42t-46 28.5t-61 10 q-29 0 -58.5 -12t-54 -34.5t-41 -58.5t-16.5 -81q0 -29 5.5 -68t27.5 -67q20 4 52 17.5t81 13.5q45 0 76 -16.5t31 -67.5q0 -47 -22.5 -73t-78.5 -26q-37 0 -77.5 19.5t-69.5 38.5q-10 12 -19.5 15t-27.5 -11q-45 -35 -73.5 -106.5t-28.5 -149.5q0 -188 148 -293t429 -105 q141 0 247.5 31t179.5 83t110 122t37 145q0 45 -18.5 90t-54.5 81t-90.5 58.5t-125.5 22.5q-68 0 -109 -20.5t-63.5 -48t-29.5 -59.5t-7 -52t7 -39.5t18.5 -35t22.5 -25t17 -9.5q8 0 15.5 9.5t3.5 21.5q-4 14 0 33.5t16 37t29.5 30t42.5 12.5q68 0 97.5 -29t29.5 -74 q0 -51 -33 -92t-129 -41q-41 0 -82 15.5t-72.5 46t-51 78t-19.5 112.5q0 61 24.5 116.5t70.5 98.5t111.5 67.5t147.5 24.5q37 0 67.5 -2t63.5 -5t70 -5t86 -2q47 0 90 11.5t74.5 34t50 56t18.5 78.5q0 20 -10 43t-27.5 41.5t-38 30.5t-40.5 12t-23.5 -15t0.5 -30 q4 -16 1 -35.5t-14.5 -38t-32 -31t-50.5 -12.5q-49 0 -78 31t-29 72q0 61 50.5 100t111.5 39q68 0 119 -18.5t85 -49t50 -71.5t16 -86q0 -160 -86 -247t-227 -110q-35 -6 -37 -20t8 -31q20 -31 37 -85t17 -140q0 -131 -54.5 -234.5t-147.5 -175t-220 -109.5t-273 -38 q-213 0 -351 53t-219 133t-112.5 172t-31.5 170zM362 373l14 -36q13 -36 63 -81t149.5 -82t271.5 -37q154 0 261.5 26.5t178 64.5t108.5 80t51.5 72t8 40t-21.5 -14q-25 -37 -62.5 -80t-103.5 -79t-167 -59.5t-255 -19.5q-154 2 -250 35t-151.5 69.5t-74.5 68.5zM362 1262 q23 31 52 57q25 23 61.5 43t83.5 27q47 6 91 0.5t79 -13.5t55 -16l21 -8l-18 17q-17 17 -52 33.5t-88 22t-129 -19.5q-49 -16 -79.5 -41t-47.5 -47q-21 -26 -29 -55zM536.5 935q-10.5 -7 20.5 -3q31 2 62.5 -9.5t53 -21.5t29 -10t-11.5 24q-18 25 -53 30t-62.5 1t-38 -11z M961 862q86 66 184 85.5t186 -3.5q111 -29 189.5 -23.5t131 28t79 52t35 50t-2 22.5t-32.5 -31q-35 -51 -91.5 -67.5t-123 -15t-138 10.5t-137.5 11t-119 -16.5t-89 -42t-55 -42t-17 -18.5zM1083 562.5q2 -15.5 13 -27.5q8 -10 8 -2t1 24t8 34.5t32 31.5q25 12 44 10 t31.5 -7t15.5 -7.5t-7 10.5q-18 18 -49 25.5t-60 -7.5q-14 -8 -23.5 -22.5t-12.5 -30.5t-1 -31.5zM1436 1223.5q2 -17.5 12 -29.5q8 -10 12 3t9.5 36.5t16.5 47.5t36 36t47 19t36.5 10.5t13.5 5.5t-24 6q-39 2 -62.5 -3t-47.5 -24q-18 -12 -30.5 -31.5t-16.5 -39t-2 -37z " />
<glyph unicode="&#xac;" d="M154 483q0 92 27.5 164t67.5 124t84 85t75 47q-41 53 -67 113.5t-26 130.5q0 57 21.5 110.5t62.5 94.5t101.5 65.5t138.5 24.5q100 0 166.5 -52.5t66.5 -162.5q0 -37 -12 -63.5t-29.5 -44t-37 -27t-31.5 -9.5t-6 37q4 27 -5.5 50.5t-27.5 42t-46 28.5t-61 10 q-29 0 -58.5 -12t-54 -34.5t-41 -58.5t-16.5 -81q0 -29 5.5 -68t27.5 -67q20 4 52 17.5t81 13.5q45 0 76 -16.5t31 -67.5q0 -47 -22.5 -73t-78.5 -26q-37 0 -77.5 19.5t-69.5 38.5q-10 12 -19.5 15t-27.5 -11q-45 -35 -73.5 -106.5t-28.5 -149.5q0 -188 148 -293t429 -105 q141 0 247.5 31t179.5 83t110 122t37 145q0 45 -18.5 90t-54.5 81t-90.5 58.5t-125.5 22.5q-68 0 -109 -20.5t-63.5 -48t-29.5 -59.5t-7 -52t7 -39.5t18.5 -35t22.5 -25t17 -9.5q8 0 15.5 9.5t3.5 21.5q-4 14 0 33.5t16 37t29.5 30t42.5 12.5q68 0 97.5 -29t29.5 -74 q0 -51 -33 -92t-129 -41q-41 0 -82 15.5t-72.5 46t-51 78t-19.5 112.5q0 61 24.5 116.5t70.5 98.5t111.5 67.5t147.5 24.5q37 0 67.5 -2t63.5 -5t70 -5t86 -2q47 0 90 11.5t74.5 34t50 56t18.5 78.5q0 20 -10 43t-27.5 41.5t-38 30.5t-40.5 12t-23.5 -15t0.5 -30 q4 -16 1 -35.5t-14.5 -38t-32 -31t-50.5 -12.5q-49 0 -78 31t-29 72q0 61 50.5 100t111.5 39q68 0 119 -18.5t85 -49t50 -71.5t16 -86q0 -160 -86 -247t-227 -110q-35 -6 -37 -20t8 -31q20 -31 37 -85t17 -140q0 -131 -54.5 -234.5t-147.5 -175t-220 -109.5t-273 -38 q-213 0 -351 53t-219 133t-112.5 172t-31.5 170zM362 373l14 -36q13 -36 63 -81t149.5 -82t271.5 -37q154 0 261.5 26.5t178 64.5t108.5 80t51.5 72t8 40t-21.5 -14q-25 -37 -62.5 -80t-103.5 -79t-167 -59.5t-255 -19.5q-154 2 -250 35t-151.5 69.5t-74.5 68.5zM362 1262 q23 31 52 57q25 23 61.5 43t83.5 27q47 6 91 0.5t79 -13.5t55 -16l21 -8l-18 17q-17 17 -52 33.5t-88 22t-129 -19.5q-49 -16 -79.5 -41t-47.5 -47q-21 -26 -29 -55zM536.5 935q-10.5 -7 20.5 -3q31 2 62.5 -9.5t53 -21.5t29 -10t-11.5 24q-18 25 -53 30t-62.5 1t-38 -11z M961 862q86 66 184 85.5t186 -3.5q111 -29 189.5 -23.5t131 28t79 52t35 50t-2 22.5t-32.5 -31q-35 -51 -91.5 -67.5t-123 -15t-138 10.5t-137.5 11t-119 -16.5t-89 -42t-55 -42t-17 -18.5zM1083 562.5q2 -15.5 13 -27.5q8 -10 8 -2t1 24t8 34.5t32 31.5q25 12 44 10 t31.5 -7t15.5 -7.5t-7 10.5q-18 18 -49 25.5t-60 -7.5q-14 -8 -23.5 -22.5t-12.5 -30.5t-1 -31.5zM1436 1223.5q2 -17.5 12 -29.5q8 -10 12 3t9.5 36.5t16.5 47.5t36 36t47 19t36.5 10.5t13.5 5.5t-24 6q-39 2 -62.5 -3t-47.5 -24q-18 -12 -30.5 -31.5t-16.5 -39t-2 -37z " />
<glyph unicode="&#xae;" d="M154 483q0 92 27.5 164t67.5 124t84 85t75 47q-41 53 -67 113.5t-26 130.5q0 57 21.5 110.5t62.5 94.5t101.5 65.5t138.5 24.5q100 0 166.5 -52.5t66.5 -162.5q0 -37 -12 -63.5t-29.5 -44t-37 -27t-31.5 -9.5t-6 37q4 27 -5.5 50.5t-27.5 42t-46 28.5t-61 10 q-29 0 -58.5 -12t-54 -34.5t-41 -58.5t-16.5 -81q0 -29 5.5 -68t27.5 -67q20 4 52 17.5t81 13.5q45 0 76 -16.5t31 -67.5q0 -47 -22.5 -73t-78.5 -26q-37 0 -77.5 19.5t-69.5 38.5q-10 12 -19.5 15t-27.5 -11q-45 -35 -73.5 -106.5t-28.5 -149.5q0 -188 148 -293t429 -105 q141 0 247.5 31t179.5 83t110 122t37 145q0 45 -18.5 90t-54.5 81t-90.5 58.5t-125.5 22.5q-68 0 -109 -20.5t-63.5 -48t-29.5 -59.5t-7 -52t7 -39.5t18.5 -35t22.5 -25t17 -9.5q8 0 15.5 9.5t3.5 21.5q-4 14 0 33.5t16 37t29.5 30t42.5 12.5q68 0 97.5 -29t29.5 -74 q0 -51 -33 -92t-129 -41q-41 0 -82 15.5t-72.5 46t-51 78t-19.5 112.5q0 61 24.5 116.5t70.5 98.5t111.5 67.5t147.5 24.5q37 0 67.5 -2t63.5 -5t70 -5t86 -2q47 0 90 11.5t74.5 34t50 56t18.5 78.5q0 20 -10 43t-27.5 41.5t-38 30.5t-40.5 12t-23.5 -15t0.5 -30 q4 -16 1 -35.5t-14.5 -38t-32 -31t-50.5 -12.5q-49 0 -78 31t-29 72q0 61 50.5 100t111.5 39q68 0 119 -18.5t85 -49t50 -71.5t16 -86q0 -160 -86 -247t-227 -110q-35 -6 -37 -20t8 -31q20 -31 37 -85t17 -140q0 -131 -54.5 -234.5t-147.5 -175t-220 -109.5t-273 -38 q-213 0 -351 53t-219 133t-112.5 172t-31.5 170zM362 373l14 -36q13 -36 63 -81t149.5 -82t271.5 -37q154 0 261.5 26.5t178 64.5t108.5 80t51.5 72t8 40t-21.5 -14q-25 -37 -62.5 -80t-103.5 -79t-167 -59.5t-255 -19.5q-154 2 -250 35t-151.5 69.5t-74.5 68.5zM362 1262 q23 31 52 57q25 23 61.5 43t83.5 27q47 6 91 0.5t79 -13.5t55 -16l21 -8l-18 17q-17 17 -52 33.5t-88 22t-129 -19.5q-49 -16 -79.5 -41t-47.5 -47q-21 -26 -29 -55zM536.5 935q-10.5 -7 20.5 -3q31 2 62.5 -9.5t53 -21.5t29 -10t-11.5 24q-18 25 -53 30t-62.5 1t-38 -11z M961 862q86 66 184 85.5t186 -3.5q111 -29 189.5 -23.5t131 28t79 52t35 50t-2 22.5t-32.5 -31q-35 -51 -91.5 -67.5t-123 -15t-138 10.5t-137.5 11t-119 -16.5t-89 -42t-55 -42t-17 -18.5zM1083 562.5q2 -15.5 13 -27.5q8 -10 8 -2t1 24t8 34.5t32 31.5q25 12 44 10 t31.5 -7t15.5 -7.5t-7 10.5q-18 18 -49 25.5t-60 -7.5q-14 -8 -23.5 -22.5t-12.5 -30.5t-1 -31.5zM1436 1223.5q2 -17.5 12 -29.5q8 -10 12 3t9.5 36.5t16.5 47.5t36 36t47 19t36.5 10.5t13.5 5.5t-24 6q-39 2 -62.5 -3t-47.5 -24q-18 -12 -30.5 -31.5t-16.5 -39t-2 -37z " />
<glyph unicode="&#xaf;" d="M154 483q0 92 27.5 164t67.5 124t84 85t75 47q-41 53 -67 113.5t-26 130.5q0 57 21.5 110.5t62.5 94.5t101.5 65.5t138.5 24.5q100 0 166.5 -52.5t66.5 -162.5q0 -37 -12 -63.5t-29.5 -44t-37 -27t-31.5 -9.5t-6 37q4 27 -5.5 50.5t-27.5 42t-46 28.5t-61 10 q-29 0 -58.5 -12t-54 -34.5t-41 -58.5t-16.5 -81q0 -29 5.5 -68t27.5 -67q20 4 52 17.5t81 13.5q45 0 76 -16.5t31 -67.5q0 -47 -22.5 -73t-78.5 -26q-37 0 -77.5 19.5t-69.5 38.5q-10 12 -19.5 15t-27.5 -11q-45 -35 -73.5 -106.5t-28.5 -149.5q0 -188 148 -293t429 -105 q141 0 247.5 31t179.5 83t110 122t37 145q0 45 -18.5 90t-54.5 81t-90.5 58.5t-125.5 22.5q-68 0 -109 -20.5t-63.5 -48t-29.5 -59.5t-7 -52t7 -39.5t18.5 -35t22.5 -25t17 -9.5q8 0 15.5 9.5t3.5 21.5q-4 14 0 33.5t16 37t29.5 30t42.5 12.5q68 0 97.5 -29t29.5 -74 q0 -51 -33 -92t-129 -41q-41 0 -82 15.5t-72.5 46t-51 78t-19.5 112.5q0 61 24.5 116.5t70.5 98.5t111.5 67.5t147.5 24.5q37 0 67.5 -2t63.5 -5t70 -5t86 -2q47 0 90 11.5t74.5 34t50 56t18.5 78.5q0 20 -10 43t-27.5 41.5t-38 30.5t-40.5 12t-23.5 -15t0.5 -30 q4 -16 1 -35.5t-14.5 -38t-32 -31t-50.5 -12.5q-49 0 -78 31t-29 72q0 61 50.5 100t111.5 39q68 0 119 -18.5t85 -49t50 -71.5t16 -86q0 -160 -86 -247t-227 -110q-35 -6 -37 -20t8 -31q20 -31 37 -85t17 -140q0 -131 -54.5 -234.5t-147.5 -175t-220 -109.5t-273 -38 q-213 0 -351 53t-219 133t-112.5 172t-31.5 170zM362 373l14 -36q13 -36 63 -81t149.5 -82t271.5 -37q154 0 261.5 26.5t178 64.5t108.5 80t51.5 72t8 40t-21.5 -14q-25 -37 -62.5 -80t-103.5 -79t-167 -59.5t-255 -19.5q-154 2 -250 35t-151.5 69.5t-74.5 68.5zM362 1262 q23 31 52 57q25 23 61.5 43t83.5 27q47 6 91 0.5t79 -13.5t55 -16l21 -8l-18 17q-17 17 -52 33.5t-88 22t-129 -19.5q-49 -16 -79.5 -41t-47.5 -47q-21 -26 -29 -55zM536.5 935q-10.5 -7 20.5 -3q31 2 62.5 -9.5t53 -21.5t29 -10t-11.5 24q-18 25 -53 30t-62.5 1t-38 -11z M961 862q86 66 184 85.5t186 -3.5q111 -29 189.5 -23.5t131 28t79 52t35 50t-2 22.5t-32.5 -31q-35 -51 -91.5 -67.5t-123 -15t-138 10.5t-137.5 11t-119 -16.5t-89 -42t-55 -42t-17 -18.5zM1083 562.5q2 -15.5 13 -27.5q8 -10 8 -2t1 24t8 34.5t32 31.5q25 12 44 10 t31.5 -7t15.5 -7.5t-7 10.5q-18 18 -49 25.5t-60 -7.5q-14 -8 -23.5 -22.5t-12.5 -30.5t-1 -31.5zM1436 1223.5q2 -17.5 12 -29.5q8 -10 12 3t9.5 36.5t16.5 47.5t36 36t47 19t36.5 10.5t13.5 5.5t-24 6q-39 2 -62.5 -3t-47.5 -24q-18 -12 -30.5 -31.5t-16.5 -39t-2 -37z " />
<glyph unicode="&#xb0;" d="M154 483q0 92 27.5 164t67.5 124t84 85t75 47q-41 53 -67 113.5t-26 130.5q0 57 21.5 110.5t62.5 94.5t101.5 65.5t138.5 24.5q100 0 166.5 -52.5t66.5 -162.5q0 -37 -12 -63.5t-29.5 -44t-37 -27t-31.5 -9.5t-6 37q4 27 -5.5 50.5t-27.5 42t-46 28.5t-61 10 q-29 0 -58.5 -12t-54 -34.5t-41 -58.5t-16.5 -81q0 -29 5.5 -68t27.5 -67q20 4 52 17.5t81 13.5q45 0 76 -16.5t31 -67.5q0 -47 -22.5 -73t-78.5 -26q-37 0 -77.5 19.5t-69.5 38.5q-10 12 -19.5 15t-27.5 -11q-45 -35 -73.5 -106.5t-28.5 -149.5q0 -188 148 -293t429 -105 q141 0 247.5 31t179.5 83t110 122t37 145q0 45 -18.5 90t-54.5 81t-90.5 58.5t-125.5 22.5q-68 0 -109 -20.5t-63.5 -48t-29.5 -59.5t-7 -52t7 -39.5t18.5 -35t22.5 -25t17 -9.5q8 0 15.5 9.5t3.5 21.5q-4 14 0 33.5t16 37t29.5 30t42.5 12.5q68 0 97.5 -29t29.5 -74 q0 -51 -33 -92t-129 -41q-41 0 -82 15.5t-72.5 46t-51 78t-19.5 112.5q0 61 24.5 116.5t70.5 98.5t111.5 67.5t147.5 24.5q37 0 67.5 -2t63.5 -5t70 -5t86 -2q47 0 90 11.5t74.5 34t50 56t18.5 78.5q0 20 -10 43t-27.5 41.5t-38 30.5t-40.5 12t-23.5 -15t0.5 -30 q4 -16 1 -35.5t-14.5 -38t-32 -31t-50.5 -12.5q-49 0 -78 31t-29 72q0 61 50.5 100t111.5 39q68 0 119 -18.5t85 -49t50 -71.5t16 -86q0 -160 -86 -247t-227 -110q-35 -6 -37 -20t8 -31q20 -31 37 -85t17 -140q0 -131 -54.5 -234.5t-147.5 -175t-220 -109.5t-273 -38 q-213 0 -351 53t-219 133t-112.5 172t-31.5 170zM362 373l14 -36q13 -36 63 -81t149.5 -82t271.5 -37q154 0 261.5 26.5t178 64.5t108.5 80t51.5 72t8 40t-21.5 -14q-25 -37 -62.5 -80t-103.5 -79t-167 -59.5t-255 -19.5q-154 2 -250 35t-151.5 69.5t-74.5 68.5zM362 1262 q23 31 52 57q25 23 61.5 43t83.5 27q47 6 91 0.5t79 -13.5t55 -16l21 -8l-18 17q-17 17 -52 33.5t-88 22t-129 -19.5q-49 -16 -79.5 -41t-47.5 -47q-21 -26 -29 -55zM536.5 935q-10.5 -7 20.5 -3q31 2 62.5 -9.5t53 -21.5t29 -10t-11.5 24q-18 25 -53 30t-62.5 1t-38 -11z M961 862q86 66 184 85.5t186 -3.5q111 -29 189.5 -23.5t131 28t79 52t35 50t-2 22.5t-32.5 -31q-35 -51 -91.5 -67.5t-123 -15t-138 10.5t-137.5 11t-119 -16.5t-89 -42t-55 -42t-17 -18.5zM1083 562.5q2 -15.5 13 -27.5q8 -10 8 -2t1 24t8 34.5t32 31.5q25 12 44 10 t31.5 -7t15.5 -7.5t-7 10.5q-18 18 -49 25.5t-60 -7.5q-14 -8 -23.5 -22.5t-12.5 -30.5t-1 -31.5zM1436 1223.5q2 -17.5 12 -29.5q8 -10 12 3t9.5 36.5t16.5 47.5t36 36t47 19t36.5 10.5t13.5 5.5t-24 6q-39 2 -62.5 -3t-47.5 -24q-18 -12 -30.5 -31.5t-16.5 -39t-2 -37z " />
<glyph unicode="&#xb1;" d="M154 483q0 92 27.5 164t67.5 124t84 85t75 47q-41 53 -67 113.5t-26 130.5q0 57 21.5 110.5t62.5 94.5t101.5 65.5t138.5 24.5q100 0 166.5 -52.5t66.5 -162.5q0 -37 -12 -63.5t-29.5 -44t-37 -27t-31.5 -9.5t-6 37q4 27 -5.5 50.5t-27.5 42t-46 28.5t-61 10 q-29 0 -58.5 -12t-54 -34.5t-41 -58.5t-16.5 -81q0 -29 5.5 -68t27.5 -67q20 4 52 17.5t81 13.5q45 0 76 -16.5t31 -67.5q0 -47 -22.5 -73t-78.5 -26q-37 0 -77.5 19.5t-69.5 38.5q-10 12 -19.5 15t-27.5 -11q-45 -35 -73.5 -106.5t-28.5 -149.5q0 -188 148 -293t429 -105 q141 0 247.5 31t179.5 83t110 122t37 145q0 45 -18.5 90t-54.5 81t-90.5 58.5t-125.5 22.5q-68 0 -109 -20.5t-63.5 -48t-29.5 -59.5t-7 -52t7 -39.5t18.5 -35t22.5 -25t17 -9.5q8 0 15.5 9.5t3.5 21.5q-4 14 0 33.5t16 37t29.5 30t42.5 12.5q68 0 97.5 -29t29.5 -74 q0 -51 -33 -92t-129 -41q-41 0 -82 15.5t-72.5 46t-51 78t-19.5 112.5q0 61 24.5 116.5t70.5 98.5t111.5 67.5t147.5 24.5q37 0 67.5 -2t63.5 -5t70 -5t86 -2q47 0 90 11.5t74.5 34t50 56t18.5 78.5q0 20 -10 43t-27.5 41.5t-38 30.5t-40.5 12t-23.5 -15t0.5 -30 q4 -16 1 -35.5t-14.5 -38t-32 -31t-50.5 -12.5q-49 0 -78 31t-29 72q0 61 50.5 100t111.5 39q68 0 119 -18.5t85 -49t50 -71.5t16 -86q0 -160 -86 -247t-227 -110q-35 -6 -37 -20t8 -31q20 -31 37 -85t17 -140q0 -131 -54.5 -234.5t-147.5 -175t-220 -109.5t-273 -38 q-213 0 -351 53t-219 133t-112.5 172t-31.5 170zM362 373l14 -36q13 -36 63 -81t149.5 -82t271.5 -37q154 0 261.5 26.5t178 64.5t108.5 80t51.5 72t8 40t-21.5 -14q-25 -37 -62.5 -80t-103.5 -79t-167 -59.5t-255 -19.5q-154 2 -250 35t-151.5 69.5t-74.5 68.5zM362 1262 q23 31 52 57q25 23 61.5 43t83.5 27q47 6 91 0.5t79 -13.5t55 -16l21 -8l-18 17q-17 17 -52 33.5t-88 22t-129 -19.5q-49 -16 -79.5 -41t-47.5 -47q-21 -26 -29 -55zM536.5 935q-10.5 -7 20.5 -3q31 2 62.5 -9.5t53 -21.5t29 -10t-11.5 24q-18 25 -53 30t-62.5 1t-38 -11z M961 862q86 66 184 85.5t186 -3.5q111 -29 189.5 -23.5t131 28t79 52t35 50t-2 22.5t-32.5 -31q-35 -51 -91.5 -67.5t-123 -15t-138 10.5t-137.5 11t-119 -16.5t-89 -42t-55 -42t-17 -18.5zM1083 562.5q2 -15.5 13 -27.5q8 -10 8 -2t1 24t8 34.5t32 31.5q25 12 44 10 t31.5 -7t15.5 -7.5t-7 10.5q-18 18 -49 25.5t-60 -7.5q-14 -8 -23.5 -22.5t-12.5 -30.5t-1 -31.5zM1436 1223.5q2 -17.5 12 -29.5q8 -10 12 3t9.5 36.5t16.5 47.5t36 36t47 19t36.5 10.5t13.5 5.5t-24 6q-39 2 -62.5 -3t-47.5 -24q-18 -12 -30.5 -31.5t-16.5 -39t-2 -37z " />
<glyph unicode="&#xb2;" d="M154 483q0 92 27.5 164t67.5 124t84 85t75 47q-41 53 -67 113.5t-26 130.5q0 57 21.5 110.5t62.5 94.5t101.5 65.5t138.5 24.5q100 0 166.5 -52.5t66.5 -162.5q0 -37 -12 -63.5t-29.5 -44t-37 -27t-31.5 -9.5t-6 37q4 27 -5.5 50.5t-27.5 42t-46 28.5t-61 10 q-29 0 -58.5 -12t-54 -34.5t-41 -58.5t-16.5 -81q0 -29 5.5 -68t27.5 -67q20 4 52 17.5t81 13.5q45 0 76 -16.5t31 -67.5q0 -47 -22.5 -73t-78.5 -26q-37 0 -77.5 19.5t-69.5 38.5q-10 12 -19.5 15t-27.5 -11q-45 -35 -73.5 -106.5t-28.5 -149.5q0 -188 148 -293t429 -105 q141 0 247.5 31t179.5 83t110 122t37 145q0 45 -18.5 90t-54.5 81t-90.5 58.5t-125.5 22.5q-68 0 -109 -20.5t-63.5 -48t-29.5 -59.5t-7 -52t7 -39.5t18.5 -35t22.5 -25t17 -9.5q8 0 15.5 9.5t3.5 21.5q-4 14 0 33.5t16 37t29.5 30t42.5 12.5q68 0 97.5 -29t29.5 -74 q0 -51 -33 -92t-129 -41q-41 0 -82 15.5t-72.5 46t-51 78t-19.5 112.5q0 61 24.5 116.5t70.5 98.5t111.5 67.5t147.5 24.5q37 0 67.5 -2t63.5 -5t70 -5t86 -2q47 0 90 11.5t74.5 34t50 56t18.5 78.5q0 20 -10 43t-27.5 41.5t-38 30.5t-40.5 12t-23.5 -15t0.5 -30 q4 -16 1 -35.5t-14.5 -38t-32 -31t-50.5 -12.5q-49 0 -78 31t-29 72q0 61 50.5 100t111.5 39q68 0 119 -18.5t85 -49t50 -71.5t16 -86q0 -160 -86 -247t-227 -110q-35 -6 -37 -20t8 -31q20 -31 37 -85t17 -140q0 -131 -54.5 -234.5t-147.5 -175t-220 -109.5t-273 -38 q-213 0 -351 53t-219 133t-112.5 172t-31.5 170zM362 373l14 -36q13 -36 63 -81t149.5 -82t271.5 -37q154 0 261.5 26.5t178 64.5t108.5 80t51.5 72t8 40t-21.5 -14q-25 -37 -62.5 -80t-103.5 -79t-167 -59.5t-255 -19.5q-154 2 -250 35t-151.5 69.5t-74.5 68.5zM362 1262 q23 31 52 57q25 23 61.5 43t83.5 27q47 6 91 0.5t79 -13.5t55 -16l21 -8l-18 17q-17 17 -52 33.5t-88 22t-129 -19.5q-49 -16 -79.5 -41t-47.5 -47q-21 -26 -29 -55zM536.5 935q-10.5 -7 20.5 -3q31 2 62.5 -9.5t53 -21.5t29 -10t-11.5 24q-18 25 -53 30t-62.5 1t-38 -11z M961 862q86 66 184 85.5t186 -3.5q111 -29 189.5 -23.5t131 28t79 52t35 50t-2 22.5t-32.5 -31q-35 -51 -91.5 -67.5t-123 -15t-138 10.5t-137.5 11t-119 -16.5t-89 -42t-55 -42t-17 -18.5zM1083 562.5q2 -15.5 13 -27.5q8 -10 8 -2t1 24t8 34.5t32 31.5q25 12 44 10 t31.5 -7t15.5 -7.5t-7 10.5q-18 18 -49 25.5t-60 -7.5q-14 -8 -23.5 -22.5t-12.5 -30.5t-1 -31.5zM1436 1223.5q2 -17.5 12 -29.5q8 -10 12 3t9.5 36.5t16.5 47.5t36 36t47 19t36.5 10.5t13.5 5.5t-24 6q-39 2 -62.5 -3t-47.5 -24q-18 -12 -30.5 -31.5t-16.5 -39t-2 -37z " />
<glyph unicode="&#xb3;" d="M154 483q0 92 27.5 164t67.5 124t84 85t75 47q-41 53 -67 113.5t-26 130.5q0 57 21.5 110.5t62.5 94.5t101.5 65.5t138.5 24.5q100 0 166.5 -52.5t66.5 -162.5q0 -37 -12 -63.5t-29.5 -44t-37 -27t-31.5 -9.5t-6 37q4 27 -5.5 50.5t-27.5 42t-46 28.5t-61 10 q-29 0 -58.5 -12t-54 -34.5t-41 -58.5t-16.5 -81q0 -29 5.5 -68t27.5 -67q20 4 52 17.5t81 13.5q45 0 76 -16.5t31 -67.5q0 -47 -22.5 -73t-78.5 -26q-37 0 -77.5 19.5t-69.5 38.5q-10 12 -19.5 15t-27.5 -11q-45 -35 -73.5 -106.5t-28.5 -149.5q0 -188 148 -293t429 -105 q141 0 247.5 31t179.5 83t110 122t37 145q0 45 -18.5 90t-54.5 81t-90.5 58.5t-125.5 22.5q-68 0 -109 -20.5t-63.5 -48t-29.5 -59.5t-7 -52t7 -39.5t18.5 -35t22.5 -25t17 -9.5q8 0 15.5 9.5t3.5 21.5q-4 14 0 33.5t16 37t29.5 30t42.5 12.5q68 0 97.5 -29t29.5 -74 q0 -51 -33 -92t-129 -41q-41 0 -82 15.5t-72.5 46t-51 78t-19.5 112.5q0 61 24.5 116.5t70.5 98.5t111.5 67.5t147.5 24.5q37 0 67.5 -2t63.5 -5t70 -5t86 -2q47 0 90 11.5t74.5 34t50 56t18.5 78.5q0 20 -10 43t-27.5 41.5t-38 30.5t-40.5 12t-23.5 -15t0.5 -30 q4 -16 1 -35.5t-14.5 -38t-32 -31t-50.5 -12.5q-49 0 -78 31t-29 72q0 61 50.5 100t111.5 39q68 0 119 -18.5t85 -49t50 -71.5t16 -86q0 -160 -86 -247t-227 -110q-35 -6 -37 -20t8 -31q20 -31 37 -85t17 -140q0 -131 -54.5 -234.5t-147.5 -175t-220 -109.5t-273 -38 q-213 0 -351 53t-219 133t-112.5 172t-31.5 170zM362 373l14 -36q13 -36 63 -81t149.5 -82t271.5 -37q154 0 261.5 26.5t178 64.5t108.5 80t51.5 72t8 40t-21.5 -14q-25 -37 -62.5 -80t-103.5 -79t-167 -59.5t-255 -19.5q-154 2 -250 35t-151.5 69.5t-74.5 68.5zM362 1262 q23 31 52 57q25 23 61.5 43t83.5 27q47 6 91 0.5t79 -13.5t55 -16l21 -8l-18 17q-17 17 -52 33.5t-88 22t-129 -19.5q-49 -16 -79.5 -41t-47.5 -47q-21 -26 -29 -55zM536.5 935q-10.5 -7 20.5 -3q31 2 62.5 -9.5t53 -21.5t29 -10t-11.5 24q-18 25 -53 30t-62.5 1t-38 -11z M961 862q86 66 184 85.5t186 -3.5q111 -29 189.5 -23.5t131 28t79 52t35 50t-2 22.5t-32.5 -31q-35 -51 -91.5 -67.5t-123 -15t-138 10.5t-137.5 11t-119 -16.5t-89 -42t-55 -42t-17 -18.5zM1083 562.5q2 -15.5 13 -27.5q8 -10 8 -2t1 24t8 34.5t32 31.5q25 12 44 10 t31.5 -7t15.5 -7.5t-7 10.5q-18 18 -49 25.5t-60 -7.5q-14 -8 -23.5 -22.5t-12.5 -30.5t-1 -31.5zM1436 1223.5q2 -17.5 12 -29.5q8 -10 12 3t9.5 36.5t16.5 47.5t36 36t47 19t36.5 10.5t13.5 5.5t-24 6q-39 2 -62.5 -3t-47.5 -24q-18 -12 -30.5 -31.5t-16.5 -39t-2 -37z " />
<glyph unicode="&#xb4;" d="M154 483q0 92 27.5 164t67.5 124t84 85t75 47q-41 53 -67 113.5t-26 130.5q0 57 21.5 110.5t62.5 94.5t101.5 65.5t138.5 24.5q100 0 166.5 -52.5t66.5 -162.5q0 -37 -12 -63.5t-29.5 -44t-37 -27t-31.5 -9.5t-6 37q4 27 -5.5 50.5t-27.5 42t-46 28.5t-61 10 q-29 0 -58.5 -12t-54 -34.5t-41 -58.5t-16.5 -81q0 -29 5.5 -68t27.5 -67q20 4 52 17.5t81 13.5q45 0 76 -16.5t31 -67.5q0 -47 -22.5 -73t-78.5 -26q-37 0 -77.5 19.5t-69.5 38.5q-10 12 -19.5 15t-27.5 -11q-45 -35 -73.5 -106.5t-28.5 -149.5q0 -188 148 -293t429 -105 q141 0 247.5 31t179.5 83t110 122t37 145q0 45 -18.5 90t-54.5 81t-90.5 58.5t-125.5 22.5q-68 0 -109 -20.5t-63.5 -48t-29.5 -59.5t-7 -52t7 -39.5t18.5 -35t22.5 -25t17 -9.5q8 0 15.5 9.5t3.5 21.5q-4 14 0 33.5t16 37t29.5 30t42.5 12.5q68 0 97.5 -29t29.5 -74 q0 -51 -33 -92t-129 -41q-41 0 -82 15.5t-72.5 46t-51 78t-19.5 112.5q0 61 24.5 116.5t70.5 98.5t111.5 67.5t147.5 24.5q37 0 67.5 -2t63.5 -5t70 -5t86 -2q47 0 90 11.5t74.5 34t50 56t18.5 78.5q0 20 -10 43t-27.5 41.5t-38 30.5t-40.5 12t-23.5 -15t0.5 -30 q4 -16 1 -35.5t-14.5 -38t-32 -31t-50.5 -12.5q-49 0 -78 31t-29 72q0 61 50.5 100t111.5 39q68 0 119 -18.5t85 -49t50 -71.5t16 -86q0 -160 -86 -247t-227 -110q-35 -6 -37 -20t8 -31q20 -31 37 -85t17 -140q0 -131 -54.5 -234.5t-147.5 -175t-220 -109.5t-273 -38 q-213 0 -351 53t-219 133t-112.5 172t-31.5 170zM362 373l14 -36q13 -36 63 -81t149.5 -82t271.5 -37q154 0 261.5 26.5t178 64.5t108.5 80t51.5 72t8 40t-21.5 -14q-25 -37 -62.5 -80t-103.5 -79t-167 -59.5t-255 -19.5q-154 2 -250 35t-151.5 69.5t-74.5 68.5zM362 1262 q23 31 52 57q25 23 61.5 43t83.5 27q47 6 91 0.5t79 -13.5t55 -16l21 -8l-18 17q-17 17 -52 33.5t-88 22t-129 -19.5q-49 -16 -79.5 -41t-47.5 -47q-21 -26 -29 -55zM536.5 935q-10.5 -7 20.5 -3q31 2 62.5 -9.5t53 -21.5t29 -10t-11.5 24q-18 25 -53 30t-62.5 1t-38 -11z M961 862q86 66 184 85.5t186 -3.5q111 -29 189.5 -23.5t131 28t79 52t35 50t-2 22.5t-32.5 -31q-35 -51 -91.5 -67.5t-123 -15t-138 10.5t-137.5 11t-119 -16.5t-89 -42t-55 -42t-17 -18.5zM1083 562.5q2 -15.5 13 -27.5q8 -10 8 -2t1 24t8 34.5t32 31.5q25 12 44 10 t31.5 -7t15.5 -7.5t-7 10.5q-18 18 -49 25.5t-60 -7.5q-14 -8 -23.5 -22.5t-12.5 -30.5t-1 -31.5zM1436 1223.5q2 -17.5 12 -29.5q8 -10 12 3t9.5 36.5t16.5 47.5t36 36t47 19t36.5 10.5t13.5 5.5t-24 6q-39 2 -62.5 -3t-47.5 -24q-18 -12 -30.5 -31.5t-16.5 -39t-2 -37z " />
<glyph unicode="&#xb5;" d="M154 483q0 92 27.5 164t67.5 124t84 85t75 47q-41 53 -67 113.5t-26 130.5q0 57 21.5 110.5t62.5 94.5t101.5 65.5t138.5 24.5q100 0 166.5 -52.5t66.5 -162.5q0 -37 -12 -63.5t-29.5 -44t-37 -27t-31.5 -9.5t-6 37q4 27 -5.5 50.5t-27.5 42t-46 28.5t-61 10 q-29 0 -58.5 -12t-54 -34.5t-41 -58.5t-16.5 -81q0 -29 5.5 -68t27.5 -67q20 4 52 17.5t81 13.5q45 0 76 -16.5t31 -67.5q0 -47 -22.5 -73t-78.5 -26q-37 0 -77.5 19.5t-69.5 38.5q-10 12 -19.5 15t-27.5 -11q-45 -35 -73.5 -106.5t-28.5 -149.5q0 -188 148 -293t429 -105 q141 0 247.5 31t179.5 83t110 122t37 145q0 45 -18.5 90t-54.5 81t-90.5 58.5t-125.5 22.5q-68 0 -109 -20.5t-63.5 -48t-29.5 -59.5t-7 -52t7 -39.5t18.5 -35t22.5 -25t17 -9.5q8 0 15.5 9.5t3.5 21.5q-4 14 0 33.5t16 37t29.5 30t42.5 12.5q68 0 97.5 -29t29.5 -74 q0 -51 -33 -92t-129 -41q-41 0 -82 15.5t-72.5 46t-51 78t-19.5 112.5q0 61 24.5 116.5t70.5 98.5t111.5 67.5t147.5 24.5q37 0 67.5 -2t63.5 -5t70 -5t86 -2q47 0 90 11.5t74.5 34t50 56t18.5 78.5q0 20 -10 43t-27.5 41.5t-38 30.5t-40.5 12t-23.5 -15t0.5 -30 q4 -16 1 -35.5t-14.5 -38t-32 -31t-50.5 -12.5q-49 0 -78 31t-29 72q0 61 50.5 100t111.5 39q68 0 119 -18.5t85 -49t50 -71.5t16 -86q0 -160 -86 -247t-227 -110q-35 -6 -37 -20t8 -31q20 -31 37 -85t17 -140q0 -131 -54.5 -234.5t-147.5 -175t-220 -109.5t-273 -38 q-213 0 -351 53t-219 133t-112.5 172t-31.5 170zM362 373l14 -36q13 -36 63 -81t149.5 -82t271.5 -37q154 0 261.5 26.5t178 64.5t108.5 80t51.5 72t8 40t-21.5 -14q-25 -37 -62.5 -80t-103.5 -79t-167 -59.5t-255 -19.5q-154 2 -250 35t-151.5 69.5t-74.5 68.5zM362 1262 q23 31 52 57q25 23 61.5 43t83.5 27q47 6 91 0.5t79 -13.5t55 -16l21 -8l-18 17q-17 17 -52 33.5t-88 22t-129 -19.5q-49 -16 -79.5 -41t-47.5 -47q-21 -26 -29 -55zM536.5 935q-10.5 -7 20.5 -3q31 2 62.5 -9.5t53 -21.5t29 -10t-11.5 24q-18 25 -53 30t-62.5 1t-38 -11z M961 862q86 66 184 85.5t186 -3.5q111 -29 189.5 -23.5t131 28t79 52t35 50t-2 22.5t-32.5 -31q-35 -51 -91.5 -67.5t-123 -15t-138 10.5t-137.5 11t-119 -16.5t-89 -42t-55 -42t-17 -18.5zM1083 562.5q2 -15.5 13 -27.5q8 -10 8 -2t1 24t8 34.5t32 31.5q25 12 44 10 t31.5 -7t15.5 -7.5t-7 10.5q-18 18 -49 25.5t-60 -7.5q-14 -8 -23.5 -22.5t-12.5 -30.5t-1 -31.5zM1436 1223.5q2 -17.5 12 -29.5q8 -10 12 3t9.5 36.5t16.5 47.5t36 36t47 19t36.5 10.5t13.5 5.5t-24 6q-39 2 -62.5 -3t-47.5 -24q-18 -12 -30.5 -31.5t-16.5 -39t-2 -37z " />
<glyph unicode="&#x3bc;" d="M154 483q0 92 27.5 164t67.5 124t84 85t75 47q-41 53 -67 113.5t-26 130.5q0 57 21.5 110.5t62.5 94.5t101.5 65.5t138.5 24.5q100 0 166.5 -52.5t66.5 -162.5q0 -37 -12 -63.5t-29.5 -44t-37 -27t-31.5 -9.5t-6 37q4 27 -5.5 50.5t-27.5 42t-46 28.5t-61 10 q-29 0 -58.5 -12t-54 -34.5t-41 -58.5t-16.5 -81q0 -29 5.5 -68t27.5 -67q20 4 52 17.5t81 13.5q45 0 76 -16.5t31 -67.5q0 -47 -22.5 -73t-78.5 -26q-37 0 -77.5 19.5t-69.5 38.5q-10 12 -19.5 15t-27.5 -11q-45 -35 -73.5 -106.5t-28.5 -149.5q0 -188 148 -293t429 -105 q141 0 247.5 31t179.5 83t110 122t37 145q0 45 -18.5 90t-54.5 81t-90.5 58.5t-125.5 22.5q-68 0 -109 -20.5t-63.5 -48t-29.5 -59.5t-7 -52t7 -39.5t18.5 -35t22.5 -25t17 -9.5q8 0 15.5 9.5t3.5 21.5q-4 14 0 33.5t16 37t29.5 30t42.5 12.5q68 0 97.5 -29t29.5 -74 q0 -51 -33 -92t-129 -41q-41 0 -82 15.5t-72.5 46t-51 78t-19.5 112.5q0 61 24.5 116.5t70.5 98.5t111.5 67.5t147.5 24.5q37 0 67.5 -2t63.5 -5t70 -5t86 -2q47 0 90 11.5t74.5 34t50 56t18.5 78.5q0 20 -10 43t-27.5 41.5t-38 30.5t-40.5 12t-23.5 -15t0.5 -30 q4 -16 1 -35.5t-14.5 -38t-32 -31t-50.5 -12.5q-49 0 -78 31t-29 72q0 61 50.5 100t111.5 39q68 0 119 -18.5t85 -49t50 -71.5t16 -86q0 -160 -86 -247t-227 -110q-35 -6 -37 -20t8 -31q20 -31 37 -85t17 -140q0 -131 -54.5 -234.5t-147.5 -175t-220 -109.5t-273 -38 q-213 0 -351 53t-219 133t-112.5 172t-31.5 170zM362 373l14 -36q13 -36 63 -81t149.5 -82t271.5 -37q154 0 261.5 26.5t178 64.5t108.5 80t51.5 72t8 40t-21.5 -14q-25 -37 -62.5 -80t-103.5 -79t-167 -59.5t-255 -19.5q-154 2 -250 35t-151.5 69.5t-74.5 68.5zM362 1262 q23 31 52 57q25 23 61.5 43t83.5 27q47 6 91 0.5t79 -13.5t55 -16l21 -8l-18 17q-17 17 -52 33.5t-88 22t-129 -19.5q-49 -16 -79.5 -41t-47.5 -47q-21 -26 -29 -55zM536.5 935q-10.5 -7 20.5 -3q31 2 62.5 -9.5t53 -21.5t29 -10t-11.5 24q-18 25 -53 30t-62.5 1t-38 -11z M961 862q86 66 184 85.5t186 -3.5q111 -29 189.5 -23.5t131 28t79 52t35 50t-2 22.5t-32.5 -31q-35 -51 -91.5 -67.5t-123 -15t-138 10.5t-137.5 11t-119 -16.5t-89 -42t-55 -42t-17 -18.5zM1083 562.5q2 -15.5 13 -27.5q8 -10 8 -2t1 24t8 34.5t32 31.5q25 12 44 10 t31.5 -7t15.5 -7.5t-7 10.5q-18 18 -49 25.5t-60 -7.5q-14 -8 -23.5 -22.5t-12.5 -30.5t-1 -31.5zM1436 1223.5q2 -17.5 12 -29.5q8 -10 12 3t9.5 36.5t16.5 47.5t36 36t47 19t36.5 10.5t13.5 5.5t-24 6q-39 2 -62.5 -3t-47.5 -24q-18 -12 -30.5 -31.5t-16.5 -39t-2 -37z " />
<glyph unicode="&#xb6;" d="M154 483q0 92 27.5 164t67.5 124t84 85t75 47q-41 53 -67 113.5t-26 130.5q0 57 21.5 110.5t62.5 94.5t101.5 65.5t138.5 24.5q100 0 166.5 -52.5t66.5 -162.5q0 -37 -12 -63.5t-29.5 -44t-37 -27t-31.5 -9.5t-6 37q4 27 -5.5 50.5t-27.5 42t-46 28.5t-61 10 q-29 0 -58.5 -12t-54 -34.5t-41 -58.5t-16.5 -81q0 -29 5.5 -68t27.5 -67q20 4 52 17.5t81 13.5q45 0 76 -16.5t31 -67.5q0 -47 -22.5 -73t-78.5 -26q-37 0 -77.5 19.5t-69.5 38.5q-10 12 -19.5 15t-27.5 -11q-45 -35 -73.5 -106.5t-28.5 -149.5q0 -188 148 -293t429 -105 q141 0 247.5 31t179.5 83t110 122t37 145q0 45 -18.5 90t-54.5 81t-90.5 58.5t-125.5 22.5q-68 0 -109 -20.5t-63.5 -48t-29.5 -59.5t-7 -52t7 -39.5t18.5 -35t22.5 -25t17 -9.5q8 0 15.5 9.5t3.5 21.5q-4 14 0 33.5t16 37t29.5 30t42.5 12.5q68 0 97.5 -29t29.5 -74 q0 -51 -33 -92t-129 -41q-41 0 -82 15.5t-72.5 46t-51 78t-19.5 112.5q0 61 24.5 116.5t70.5 98.5t111.5 67.5t147.5 24.5q37 0 67.5 -2t63.5 -5t70 -5t86 -2q47 0 90 11.5t74.5 34t50 56t18.5 78.5q0 20 -10 43t-27.5 41.5t-38 30.5t-40.5 12t-23.5 -15t0.5 -30 q4 -16 1 -35.5t-14.5 -38t-32 -31t-50.5 -12.5q-49 0 -78 31t-29 72q0 61 50.5 100t111.5 39q68 0 119 -18.5t85 -49t50 -71.5t16 -86q0 -160 -86 -247t-227 -110q-35 -6 -37 -20t8 -31q20 -31 37 -85t17 -140q0 -131 -54.5 -234.5t-147.5 -175t-220 -109.5t-273 -38 q-213 0 -351 53t-219 133t-112.5 172t-31.5 170zM362 373l14 -36q13 -36 63 -81t149.5 -82t271.5 -37q154 0 261.5 26.5t178 64.5t108.5 80t51.5 72t8 40t-21.5 -14q-25 -37 -62.5 -80t-103.5 -79t-167 -59.5t-255 -19.5q-154 2 -250 35t-151.5 69.5t-74.5 68.5zM362 1262 q23 31 52 57q25 23 61.5 43t83.5 27q47 6 91 0.5t79 -13.5t55 -16l21 -8l-18 17q-17 17 -52 33.5t-88 22t-129 -19.5q-49 -16 -79.5 -41t-47.5 -47q-21 -26 -29 -55zM536.5 935q-10.5 -7 20.5 -3q31 2 62.5 -9.5t53 -21.5t29 -10t-11.5 24q-18 25 -53 30t-62.5 1t-38 -11z M961 862q86 66 184 85.5t186 -3.5q111 -29 189.5 -23.5t131 28t79 52t35 50t-2 22.5t-32.5 -31q-35 -51 -91.5 -67.5t-123 -15t-138 10.5t-137.5 11t-119 -16.5t-89 -42t-55 -42t-17 -18.5zM1083 562.5q2 -15.5 13 -27.5q8 -10 8 -2t1 24t8 34.5t32 31.5q25 12 44 10 t31.5 -7t15.5 -7.5t-7 10.5q-18 18 -49 25.5t-60 -7.5q-14 -8 -23.5 -22.5t-12.5 -30.5t-1 -31.5zM1436 1223.5q2 -17.5 12 -29.5q8 -10 12 3t9.5 36.5t16.5 47.5t36 36t47 19t36.5 10.5t13.5 5.5t-24 6q-39 2 -62.5 -3t-47.5 -24q-18 -12 -30.5 -31.5t-16.5 -39t-2 -37z " />
<glyph unicode="&#xb7;" d="M154 483q0 92 27.5 164t67.5 124t84 85t75 47q-41 53 -67 113.5t-26 130.5q0 57 21.5 110.5t62.5 94.5t101.5 65.5t138.5 24.5q100 0 166.5 -52.5t66.5 -162.5q0 -37 -12 -63.5t-29.5 -44t-37 -27t-31.5 -9.5t-6 37q4 27 -5.5 50.5t-27.5 42t-46 28.5t-61 10 q-29 0 -58.5 -12t-54 -34.5t-41 -58.5t-16.5 -81q0 -29 5.5 -68t27.5 -67q20 4 52 17.5t81 13.5q45 0 76 -16.5t31 -67.5q0 -47 -22.5 -73t-78.5 -26q-37 0 -77.5 19.5t-69.5 38.5q-10 12 -19.5 15t-27.5 -11q-45 -35 -73.5 -106.5t-28.5 -149.5q0 -188 148 -293t429 -105 q141 0 247.5 31t179.5 83t110 122t37 145q0 45 -18.5 90t-54.5 81t-90.5 58.5t-125.5 22.5q-68 0 -109 -20.5t-63.5 -48t-29.5 -59.5t-7 -52t7 -39.5t18.5 -35t22.5 -25t17 -9.5q8 0 15.5 9.5t3.5 21.5q-4 14 0 33.5t16 37t29.5 30t42.5 12.5q68 0 97.5 -29t29.5 -74 q0 -51 -33 -92t-129 -41q-41 0 -82 15.5t-72.5 46t-51 78t-19.5 112.5q0 61 24.5 116.5t70.5 98.5t111.5 67.5t147.5 24.5q37 0 67.5 -2t63.5 -5t70 -5t86 -2q47 0 90 11.5t74.5 34t50 56t18.5 78.5q0 20 -10 43t-27.5 41.5t-38 30.5t-40.5 12t-23.5 -15t0.5 -30 q4 -16 1 -35.5t-14.5 -38t-32 -31t-50.5 -12.5q-49 0 -78 31t-29 72q0 61 50.5 100t111.5 39q68 0 119 -18.5t85 -49t50 -71.5t16 -86q0 -160 -86 -247t-227 -110q-35 -6 -37 -20t8 -31q20 -31 37 -85t17 -140q0 -131 -54.5 -234.5t-147.5 -175t-220 -109.5t-273 -38 q-213 0 -351 53t-219 133t-112.5 172t-31.5 170zM362 373l14 -36q13 -36 63 -81t149.5 -82t271.5 -37q154 0 261.5 26.5t178 64.5t108.5 80t51.5 72t8 40t-21.5 -14q-25 -37 -62.5 -80t-103.5 -79t-167 -59.5t-255 -19.5q-154 2 -250 35t-151.5 69.5t-74.5 68.5zM362 1262 q23 31 52 57q25 23 61.5 43t83.5 27q47 6 91 0.5t79 -13.5t55 -16l21 -8l-18 17q-17 17 -52 33.5t-88 22t-129 -19.5q-49 -16 -79.5 -41t-47.5 -47q-21 -26 -29 -55zM536.5 935q-10.5 -7 20.5 -3q31 2 62.5 -9.5t53 -21.5t29 -10t-11.5 24q-18 25 -53 30t-62.5 1t-38 -11z M961 862q86 66 184 85.5t186 -3.5q111 -29 189.5 -23.5t131 28t79 52t35 50t-2 22.5t-32.5 -31q-35 -51 -91.5 -67.5t-123 -15t-138 10.5t-137.5 11t-119 -16.5t-89 -42t-55 -42t-17 -18.5zM1083 562.5q2 -15.5 13 -27.5q8 -10 8 -2t1 24t8 34.5t32 31.5q25 12 44 10 t31.5 -7t15.5 -7.5t-7 10.5q-18 18 -49 25.5t-60 -7.5q-14 -8 -23.5 -22.5t-12.5 -30.5t-1 -31.5zM1436 1223.5q2 -17.5 12 -29.5q8 -10 12 3t9.5 36.5t16.5 47.5t36 36t47 19t36.5 10.5t13.5 5.5t-24 6q-39 2 -62.5 -3t-47.5 -24q-18 -12 -30.5 -31.5t-16.5 -39t-2 -37z " />
<glyph unicode="&#xb8;" d="M154 483q0 92 27.5 164t67.5 124t84 85t75 47q-41 53 -67 113.5t-26 130.5q0 57 21.5 110.5t62.5 94.5t101.5 65.5t138.5 24.5q100 0 166.5 -52.5t66.5 -162.5q0 -37 -12 -63.5t-29.5 -44t-37 -27t-31.5 -9.5t-6 37q4 27 -5.5 50.5t-27.5 42t-46 28.5t-61 10 q-29 0 -58.5 -12t-54 -34.5t-41 -58.5t-16.5 -81q0 -29 5.5 -68t27.5 -67q20 4 52 17.5t81 13.5q45 0 76 -16.5t31 -67.5q0 -47 -22.5 -73t-78.5 -26q-37 0 -77.5 19.5t-69.5 38.5q-10 12 -19.5 15t-27.5 -11q-45 -35 -73.5 -106.5t-28.5 -149.5q0 -188 148 -293t429 -105 q141 0 247.5 31t179.5 83t110 122t37 145q0 45 -18.5 90t-54.5 81t-90.5 58.5t-125.5 22.5q-68 0 -109 -20.5t-63.5 -48t-29.5 -59.5t-7 -52t7 -39.5t18.5 -35t22.5 -25t17 -9.5q8 0 15.5 9.5t3.5 21.5q-4 14 0 33.5t16 37t29.5 30t42.5 12.5q68 0 97.5 -29t29.5 -74 q0 -51 -33 -92t-129 -41q-41 0 -82 15.5t-72.5 46t-51 78t-19.5 112.5q0 61 24.5 116.5t70.5 98.5t111.5 67.5t147.5 24.5q37 0 67.5 -2t63.5 -5t70 -5t86 -2q47 0 90 11.5t74.5 34t50 56t18.5 78.5q0 20 -10 43t-27.5 41.5t-38 30.5t-40.5 12t-23.5 -15t0.5 -30 q4 -16 1 -35.5t-14.5 -38t-32 -31t-50.5 -12.5q-49 0 -78 31t-29 72q0 61 50.5 100t111.5 39q68 0 119 -18.5t85 -49t50 -71.5t16 -86q0 -160 -86 -247t-227 -110q-35 -6 -37 -20t8 -31q20 -31 37 -85t17 -140q0 -131 -54.5 -234.5t-147.5 -175t-220 -109.5t-273 -38 q-213 0 -351 53t-219 133t-112.5 172t-31.5 170zM362 373l14 -36q13 -36 63 -81t149.5 -82t271.5 -37q154 0 261.5 26.5t178 64.5t108.5 80t51.5 72t8 40t-21.5 -14q-25 -37 -62.5 -80t-103.5 -79t-167 -59.5t-255 -19.5q-154 2 -250 35t-151.5 69.5t-74.5 68.5zM362 1262 q23 31 52 57q25 23 61.5 43t83.5 27q47 6 91 0.5t79 -13.5t55 -16l21 -8l-18 17q-17 17 -52 33.5t-88 22t-129 -19.5q-49 -16 -79.5 -41t-47.5 -47q-21 -26 -29 -55zM536.5 935q-10.5 -7 20.5 -3q31 2 62.5 -9.5t53 -21.5t29 -10t-11.5 24q-18 25 -53 30t-62.5 1t-38 -11z M961 862q86 66 184 85.5t186 -3.5q111 -29 189.5 -23.5t131 28t79 52t35 50t-2 22.5t-32.5 -31q-35 -51 -91.5 -67.5t-123 -15t-138 10.5t-137.5 11t-119 -16.5t-89 -42t-55 -42t-17 -18.5zM1083 562.5q2 -15.5 13 -27.5q8 -10 8 -2t1 24t8 34.5t32 31.5q25 12 44 10 t31.5 -7t15.5 -7.5t-7 10.5q-18 18 -49 25.5t-60 -7.5q-14 -8 -23.5 -22.5t-12.5 -30.5t-1 -31.5zM1436 1223.5q2 -17.5 12 -29.5q8 -10 12 3t9.5 36.5t16.5 47.5t36 36t47 19t36.5 10.5t13.5 5.5t-24 6q-39 2 -62.5 -3t-47.5 -24q-18 -12 -30.5 -31.5t-16.5 -39t-2 -37z " />
<glyph unicode="&#xb9;" d="M154 483q0 92 27.5 164t67.5 124t84 85t75 47q-41 53 -67 113.5t-26 130.5q0 57 21.5 110.5t62.5 94.5t101.5 65.5t138.5 24.5q100 0 166.5 -52.5t66.5 -162.5q0 -37 -12 -63.5t-29.5 -44t-37 -27t-31.5 -9.5t-6 37q4 27 -5.5 50.5t-27.5 42t-46 28.5t-61 10 q-29 0 -58.5 -12t-54 -34.5t-41 -58.5t-16.5 -81q0 -29 5.5 -68t27.5 -67q20 4 52 17.5t81 13.5q45 0 76 -16.5t31 -67.5q0 -47 -22.5 -73t-78.5 -26q-37 0 -77.5 19.5t-69.5 38.5q-10 12 -19.5 15t-27.5 -11q-45 -35 -73.5 -106.5t-28.5 -149.5q0 -188 148 -293t429 -105 q141 0 247.5 31t179.5 83t110 122t37 145q0 45 -18.5 90t-54.5 81t-90.5 58.5t-125.5 22.5q-68 0 -109 -20.5t-63.5 -48t-29.5 -59.5t-7 -52t7 -39.5t18.5 -35t22.5 -25t17 -9.5q8 0 15.5 9.5t3.5 21.5q-4 14 0 33.5t16 37t29.5 30t42.5 12.5q68 0 97.5 -29t29.5 -74 q0 -51 -33 -92t-129 -41q-41 0 -82 15.5t-72.5 46t-51 78t-19.5 112.5q0 61 24.5 116.5t70.5 98.5t111.5 67.5t147.5 24.5q37 0 67.5 -2t63.5 -5t70 -5t86 -2q47 0 90 11.5t74.5 34t50 56t18.5 78.5q0 20 -10 43t-27.5 41.5t-38 30.5t-40.5 12t-23.5 -15t0.5 -30 q4 -16 1 -35.5t-14.5 -38t-32 -31t-50.5 -12.5q-49 0 -78 31t-29 72q0 61 50.5 100t111.5 39q68 0 119 -18.5t85 -49t50 -71.5t16 -86q0 -160 -86 -247t-227 -110q-35 -6 -37 -20t8 -31q20 -31 37 -85t17 -140q0 -131 -54.5 -234.5t-147.5 -175t-220 -109.5t-273 -38 q-213 0 -351 53t-219 133t-112.5 172t-31.5 170zM362 373l14 -36q13 -36 63 -81t149.5 -82t271.5 -37q154 0 261.5 26.5t178 64.5t108.5 80t51.5 72t8 40t-21.5 -14q-25 -37 -62.5 -80t-103.5 -79t-167 -59.5t-255 -19.5q-154 2 -250 35t-151.5 69.5t-74.5 68.5zM362 1262 q23 31 52 57q25 23 61.5 43t83.5 27q47 6 91 0.5t79 -13.5t55 -16l21 -8l-18 17q-17 17 -52 33.5t-88 22t-129 -19.5q-49 -16 -79.5 -41t-47.5 -47q-21 -26 -29 -55zM536.5 935q-10.5 -7 20.5 -3q31 2 62.5 -9.5t53 -21.5t29 -10t-11.5 24q-18 25 -53 30t-62.5 1t-38 -11z M961 862q86 66 184 85.5t186 -3.5q111 -29 189.5 -23.5t131 28t79 52t35 50t-2 22.5t-32.5 -31q-35 -51 -91.5 -67.5t-123 -15t-138 10.5t-137.5 11t-119 -16.5t-89 -42t-55 -42t-17 -18.5zM1083 562.5q2 -15.5 13 -27.5q8 -10 8 -2t1 24t8 34.5t32 31.5q25 12 44 10 t31.5 -7t15.5 -7.5t-7 10.5q-18 18 -49 25.5t-60 -7.5q-14 -8 -23.5 -22.5t-12.5 -30.5t-1 -31.5zM1436 1223.5q2 -17.5 12 -29.5q8 -10 12 3t9.5 36.5t16.5 47.5t36 36t47 19t36.5 10.5t13.5 5.5t-24 6q-39 2 -62.5 -3t-47.5 -24q-18 -12 -30.5 -31.5t-16.5 -39t-2 -37z " />
<glyph unicode="&#xba;" d="M154 483q0 92 27.5 164t67.5 124t84 85t75 47q-41 53 -67 113.5t-26 130.5q0 57 21.5 110.5t62.5 94.5t101.5 65.5t138.5 24.5q100 0 166.5 -52.5t66.5 -162.5q0 -37 -12 -63.5t-29.5 -44t-37 -27t-31.5 -9.5t-6 37q4 27 -5.5 50.5t-27.5 42t-46 28.5t-61 10 q-29 0 -58.5 -12t-54 -34.5t-41 -58.5t-16.5 -81q0 -29 5.5 -68t27.5 -67q20 4 52 17.5t81 13.5q45 0 76 -16.5t31 -67.5q0 -47 -22.5 -73t-78.5 -26q-37 0 -77.5 19.5t-69.5 38.5q-10 12 -19.5 15t-27.5 -11q-45 -35 -73.5 -106.5t-28.5 -149.5q0 -188 148 -293t429 -105 q141 0 247.5 31t179.5 83t110 122t37 145q0 45 -18.5 90t-54.5 81t-90.5 58.5t-125.5 22.5q-68 0 -109 -20.5t-63.5 -48t-29.5 -59.5t-7 -52t7 -39.5t18.5 -35t22.5 -25t17 -9.5q8 0 15.5 9.5t3.5 21.5q-4 14 0 33.5t16 37t29.5 30t42.5 12.5q68 0 97.5 -29t29.5 -74 q0 -51 -33 -92t-129 -41q-41 0 -82 15.5t-72.5 46t-51 78t-19.5 112.5q0 61 24.5 116.5t70.5 98.5t111.5 67.5t147.5 24.5q37 0 67.5 -2t63.5 -5t70 -5t86 -2q47 0 90 11.5t74.5 34t50 56t18.5 78.5q0 20 -10 43t-27.5 41.5t-38 30.5t-40.5 12t-23.5 -15t0.5 -30 q4 -16 1 -35.5t-14.5 -38t-32 -31t-50.5 -12.5q-49 0 -78 31t-29 72q0 61 50.5 100t111.5 39q68 0 119 -18.5t85 -49t50 -71.5t16 -86q0 -160 -86 -247t-227 -110q-35 -6 -37 -20t8 -31q20 -31 37 -85t17 -140q0 -131 -54.5 -234.5t-147.5 -175t-220 -109.5t-273 -38 q-213 0 -351 53t-219 133t-112.5 172t-31.5 170zM362 373l14 -36q13 -36 63 -81t149.5 -82t271.5 -37q154 0 261.5 26.5t178 64.5t108.5 80t51.5 72t8 40t-21.5 -14q-25 -37 -62.5 -80t-103.5 -79t-167 -59.5t-255 -19.5q-154 2 -250 35t-151.5 69.5t-74.5 68.5zM362 1262 q23 31 52 57q25 23 61.5 43t83.5 27q47 6 91 0.5t79 -13.5t55 -16l21 -8l-18 17q-17 17 -52 33.5t-88 22t-129 -19.5q-49 -16 -79.5 -41t-47.5 -47q-21 -26 -29 -55zM536.5 935q-10.5 -7 20.5 -3q31 2 62.5 -9.5t53 -21.5t29 -10t-11.5 24q-18 25 -53 30t-62.5 1t-38 -11z M961 862q86 66 184 85.5t186 -3.5q111 -29 189.5 -23.5t131 28t79 52t35 50t-2 22.5t-32.5 -31q-35 -51 -91.5 -67.5t-123 -15t-138 10.5t-137.5 11t-119 -16.5t-89 -42t-55 -42t-17 -18.5zM1083 562.5q2 -15.5 13 -27.5q8 -10 8 -2t1 24t8 34.5t32 31.5q25 12 44 10 t31.5 -7t15.5 -7.5t-7 10.5q-18 18 -49 25.5t-60 -7.5q-14 -8 -23.5 -22.5t-12.5 -30.5t-1 -31.5zM1436 1223.5q2 -17.5 12 -29.5q8 -10 12 3t9.5 36.5t16.5 47.5t36 36t47 19t36.5 10.5t13.5 5.5t-24 6q-39 2 -62.5 -3t-47.5 -24q-18 -12 -30.5 -31.5t-16.5 -39t-2 -37z " />
<glyph unicode="&#xbb;" d="M154 483q0 92 27.5 164t67.5 124t84 85t75 47q-41 53 -67 113.5t-26 130.5q0 57 21.5 110.5t62.5 94.5t101.5 65.5t138.5 24.5q100 0 166.5 -52.5t66.5 -162.5q0 -37 -12 -63.5t-29.5 -44t-37 -27t-31.5 -9.5t-6 37q4 27 -5.5 50.5t-27.5 42t-46 28.5t-61 10 q-29 0 -58.5 -12t-54 -34.5t-41 -58.5t-16.5 -81q0 -29 5.5 -68t27.5 -67q20 4 52 17.5t81 13.5q45 0 76 -16.5t31 -67.5q0 -47 -22.5 -73t-78.5 -26q-37 0 -77.5 19.5t-69.5 38.5q-10 12 -19.5 15t-27.5 -11q-45 -35 -73.5 -106.5t-28.5 -149.5q0 -188 148 -293t429 -105 q141 0 247.5 31t179.5 83t110 122t37 145q0 45 -18.5 90t-54.5 81t-90.5 58.5t-125.5 22.5q-68 0 -109 -20.5t-63.5 -48t-29.5 -59.5t-7 -52t7 -39.5t18.5 -35t22.5 -25t17 -9.5q8 0 15.5 9.5t3.5 21.5q-4 14 0 33.5t16 37t29.5 30t42.5 12.5q68 0 97.5 -29t29.5 -74 q0 -51 -33 -92t-129 -41q-41 0 -82 15.5t-72.5 46t-51 78t-19.5 112.5q0 61 24.5 116.5t70.5 98.5t111.5 67.5t147.5 24.5q37 0 67.5 -2t63.5 -5t70 -5t86 -2q47 0 90 11.5t74.5 34t50 56t18.5 78.5q0 20 -10 43t-27.5 41.5t-38 30.5t-40.5 12t-23.5 -15t0.5 -30 q4 -16 1 -35.5t-14.5 -38t-32 -31t-50.5 -12.5q-49 0 -78 31t-29 72q0 61 50.5 100t111.5 39q68 0 119 -18.5t85 -49t50 -71.5t16 -86q0 -160 -86 -247t-227 -110q-35 -6 -37 -20t8 -31q20 -31 37 -85t17 -140q0 -131 -54.5 -234.5t-147.5 -175t-220 -109.5t-273 -38 q-213 0 -351 53t-219 133t-112.5 172t-31.5 170zM362 373l14 -36q13 -36 63 -81t149.5 -82t271.5 -37q154 0 261.5 26.5t178 64.5t108.5 80t51.5 72t8 40t-21.5 -14q-25 -37 -62.5 -80t-103.5 -79t-167 -59.5t-255 -19.5q-154 2 -250 35t-151.5 69.5t-74.5 68.5zM362 1262 q23 31 52 57q25 23 61.5 43t83.5 27q47 6 91 0.5t79 -13.5t55 -16l21 -8l-18 17q-17 17 -52 33.5t-88 22t-129 -19.5q-49 -16 -79.5 -41t-47.5 -47q-21 -26 -29 -55zM536.5 935q-10.5 -7 20.5 -3q31 2 62.5 -9.5t53 -21.5t29 -10t-11.5 24q-18 25 -53 30t-62.5 1t-38 -11z M961 862q86 66 184 85.5t186 -3.5q111 -29 189.5 -23.5t131 28t79 52t35 50t-2 22.5t-32.5 -31q-35 -51 -91.5 -67.5t-123 -15t-138 10.5t-137.5 11t-119 -16.5t-89 -42t-55 -42t-17 -18.5zM1083 562.5q2 -15.5 13 -27.5q8 -10 8 -2t1 24t8 34.5t32 31.5q25 12 44 10 t31.5 -7t15.5 -7.5t-7 10.5q-18 18 -49 25.5t-60 -7.5q-14 -8 -23.5 -22.5t-12.5 -30.5t-1 -31.5zM1436 1223.5q2 -17.5 12 -29.5q8 -10 12 3t9.5 36.5t16.5 47.5t36 36t47 19t36.5 10.5t13.5 5.5t-24 6q-39 2 -62.5 -3t-47.5 -24q-18 -12 -30.5 -31.5t-16.5 -39t-2 -37z " />
<glyph unicode="&#xbc;" d="M154 483q0 92 27.5 164t67.5 124t84 85t75 47q-41 53 -67 113.5t-26 130.5q0 57 21.5 110.5t62.5 94.5t101.5 65.5t138.5 24.5q100 0 166.5 -52.5t66.5 -162.5q0 -37 -12 -63.5t-29.5 -44t-37 -27t-31.5 -9.5t-6 37q4 27 -5.5 50.5t-27.5 42t-46 28.5t-61 10 q-29 0 -58.5 -12t-54 -34.5t-41 -58.5t-16.5 -81q0 -29 5.5 -68t27.5 -67q20 4 52 17.5t81 13.5q45 0 76 -16.5t31 -67.5q0 -47 -22.5 -73t-78.5 -26q-37 0 -77.5 19.5t-69.5 38.5q-10 12 -19.5 15t-27.5 -11q-45 -35 -73.5 -106.5t-28.5 -149.5q0 -188 148 -293t429 -105 q141 0 247.5 31t179.5 83t110 122t37 145q0 45 -18.5 90t-54.5 81t-90.5 58.5t-125.5 22.5q-68 0 -109 -20.5t-63.5 -48t-29.5 -59.5t-7 -52t7 -39.5t18.5 -35t22.5 -25t17 -9.5q8 0 15.5 9.5t3.5 21.5q-4 14 0 33.5t16 37t29.5 30t42.5 12.5q68 0 97.5 -29t29.5 -74 q0 -51 -33 -92t-129 -41q-41 0 -82 15.5t-72.5 46t-51 78t-19.5 112.5q0 61 24.5 116.5t70.5 98.5t111.5 67.5t147.5 24.5q37 0 67.5 -2t63.5 -5t70 -5t86 -2q47 0 90 11.5t74.5 34t50 56t18.5 78.5q0 20 -10 43t-27.5 41.5t-38 30.5t-40.5 12t-23.5 -15t0.5 -30 q4 -16 1 -35.5t-14.5 -38t-32 -31t-50.5 -12.5q-49 0 -78 31t-29 72q0 61 50.5 100t111.5 39q68 0 119 -18.5t85 -49t50 -71.5t16 -86q0 -160 -86 -247t-227 -110q-35 -6 -37 -20t8 -31q20 -31 37 -85t17 -140q0 -131 -54.5 -234.5t-147.5 -175t-220 -109.5t-273 -38 q-213 0 -351 53t-219 133t-112.5 172t-31.5 170zM362 373l14 -36q13 -36 63 -81t149.5 -82t271.5 -37q154 0 261.5 26.5t178 64.5t108.5 80t51.5 72t8 40t-21.5 -14q-25 -37 -62.5 -80t-103.5 -79t-167 -59.5t-255 -19.5q-154 2 -250 35t-151.5 69.5t-74.5 68.5zM362 1262 q23 31 52 57q25 23 61.5 43t83.5 27q47 6 91 0.5t79 -13.5t55 -16l21 -8l-18 17q-17 17 -52 33.5t-88 22t-129 -19.5q-49 -16 -79.5 -41t-47.5 -47q-21 -26 -29 -55zM536.5 935q-10.5 -7 20.5 -3q31 2 62.5 -9.5t53 -21.5t29 -10t-11.5 24q-18 25 -53 30t-62.5 1t-38 -11z M961 862q86 66 184 85.5t186 -3.5q111 -29 189.5 -23.5t131 28t79 52t35 50t-2 22.5t-32.5 -31q-35 -51 -91.5 -67.5t-123 -15t-138 10.5t-137.5 11t-119 -16.5t-89 -42t-55 -42t-17 -18.5zM1083 562.5q2 -15.5 13 -27.5q8 -10 8 -2t1 24t8 34.5t32 31.5q25 12 44 10 t31.5 -7t15.5 -7.5t-7 10.5q-18 18 -49 25.5t-60 -7.5q-14 -8 -23.5 -22.5t-12.5 -30.5t-1 -31.5zM1436 1223.5q2 -17.5 12 -29.5q8 -10 12 3t9.5 36.5t16.5 47.5t36 36t47 19t36.5 10.5t13.5 5.5t-24 6q-39 2 -62.5 -3t-47.5 -24q-18 -12 -30.5 -31.5t-16.5 -39t-2 -37z " />
<glyph unicode="&#xbd;" d="M154 483q0 92 27.5 164t67.5 124t84 85t75 47q-41 53 -67 113.5t-26 130.5q0 57 21.5 110.5t62.5 94.5t101.5 65.5t138.5 24.5q100 0 166.5 -52.5t66.5 -162.5q0 -37 -12 -63.5t-29.5 -44t-37 -27t-31.5 -9.5t-6 37q4 27 -5.5 50.5t-27.5 42t-46 28.5t-61 10 q-29 0 -58.5 -12t-54 -34.5t-41 -58.5t-16.5 -81q0 -29 5.5 -68t27.5 -67q20 4 52 17.5t81 13.5q45 0 76 -16.5t31 -67.5q0 -47 -22.5 -73t-78.5 -26q-37 0 -77.5 19.5t-69.5 38.5q-10 12 -19.5 15t-27.5 -11q-45 -35 -73.5 -106.5t-28.5 -149.5q0 -188 148 -293t429 -105 q141 0 247.5 31t179.5 83t110 122t37 145q0 45 -18.5 90t-54.5 81t-90.5 58.5t-125.5 22.5q-68 0 -109 -20.5t-63.5 -48t-29.5 -59.5t-7 -52t7 -39.5t18.5 -35t22.5 -25t17 -9.5q8 0 15.5 9.5t3.5 21.5q-4 14 0 33.5t16 37t29.5 30t42.5 12.5q68 0 97.5 -29t29.5 -74 q0 -51 -33 -92t-129 -41q-41 0 -82 15.5t-72.5 46t-51 78t-19.5 112.5q0 61 24.5 116.5t70.5 98.5t111.5 67.5t147.5 24.5q37 0 67.5 -2t63.5 -5t70 -5t86 -2q47 0 90 11.5t74.5 34t50 56t18.5 78.5q0 20 -10 43t-27.5 41.5t-38 30.5t-40.5 12t-23.5 -15t0.5 -30 q4 -16 1 -35.5t-14.5 -38t-32 -31t-50.5 -12.5q-49 0 -78 31t-29 72q0 61 50.5 100t111.5 39q68 0 119 -18.5t85 -49t50 -71.5t16 -86q0 -160 -86 -247t-227 -110q-35 -6 -37 -20t8 -31q20 -31 37 -85t17 -140q0 -131 -54.5 -234.5t-147.5 -175t-220 -109.5t-273 -38 q-213 0 -351 53t-219 133t-112.5 172t-31.5 170zM362 373l14 -36q13 -36 63 -81t149.5 -82t271.5 -37q154 0 261.5 26.5t178 64.5t108.5 80t51.5 72t8 40t-21.5 -14q-25 -37 -62.5 -80t-103.5 -79t-167 -59.5t-255 -19.5q-154 2 -250 35t-151.5 69.5t-74.5 68.5zM362 1262 q23 31 52 57q25 23 61.5 43t83.5 27q47 6 91 0.5t79 -13.5t55 -16l21 -8l-18 17q-17 17 -52 33.5t-88 22t-129 -19.5q-49 -16 -79.5 -41t-47.5 -47q-21 -26 -29 -55zM536.5 935q-10.5 -7 20.5 -3q31 2 62.5 -9.5t53 -21.5t29 -10t-11.5 24q-18 25 -53 30t-62.5 1t-38 -11z M961 862q86 66 184 85.5t186 -3.5q111 -29 189.5 -23.5t131 28t79 52t35 50t-2 22.5t-32.5 -31q-35 -51 -91.5 -67.5t-123 -15t-138 10.5t-137.5 11t-119 -16.5t-89 -42t-55 -42t-17 -18.5zM1083 562.5q2 -15.5 13 -27.5q8 -10 8 -2t1 24t8 34.5t32 31.5q25 12 44 10 t31.5 -7t15.5 -7.5t-7 10.5q-18 18 -49 25.5t-60 -7.5q-14 -8 -23.5 -22.5t-12.5 -30.5t-1 -31.5zM1436 1223.5q2 -17.5 12 -29.5q8 -10 12 3t9.5 36.5t16.5 47.5t36 36t47 19t36.5 10.5t13.5 5.5t-24 6q-39 2 -62.5 -3t-47.5 -24q-18 -12 -30.5 -31.5t-16.5 -39t-2 -37z " />
<glyph unicode="&#xbe;" d="M154 483q0 92 27.5 164t67.5 124t84 85t75 47q-41 53 -67 113.5t-26 130.5q0 57 21.5 110.5t62.5 94.5t101.5 65.5t138.5 24.5q100 0 166.5 -52.5t66.5 -162.5q0 -37 -12 -63.5t-29.5 -44t-37 -27t-31.5 -9.5t-6 37q4 27 -5.5 50.5t-27.5 42t-46 28.5t-61 10 q-29 0 -58.5 -12t-54 -34.5t-41 -58.5t-16.5 -81q0 -29 5.5 -68t27.5 -67q20 4 52 17.5t81 13.5q45 0 76 -16.5t31 -67.5q0 -47 -22.5 -73t-78.5 -26q-37 0 -77.5 19.5t-69.5 38.5q-10 12 -19.5 15t-27.5 -11q-45 -35 -73.5 -106.5t-28.5 -149.5q0 -188 148 -293t429 -105 q141 0 247.5 31t179.5 83t110 122t37 145q0 45 -18.5 90t-54.5 81t-90.5 58.5t-125.5 22.5q-68 0 -109 -20.5t-63.5 -48t-29.5 -59.5t-7 -52t7 -39.5t18.5 -35t22.5 -25t17 -9.5q8 0 15.5 9.5t3.5 21.5q-4 14 0 33.5t16 37t29.5 30t42.5 12.5q68 0 97.5 -29t29.5 -74 q0 -51 -33 -92t-129 -41q-41 0 -82 15.5t-72.5 46t-51 78t-19.5 112.5q0 61 24.5 116.5t70.5 98.5t111.5 67.5t147.5 24.5q37 0 67.5 -2t63.5 -5t70 -5t86 -2q47 0 90 11.5t74.5 34t50 56t18.5 78.5q0 20 -10 43t-27.5 41.5t-38 30.5t-40.5 12t-23.5 -15t0.5 -30 q4 -16 1 -35.5t-14.5 -38t-32 -31t-50.5 -12.5q-49 0 -78 31t-29 72q0 61 50.5 100t111.5 39q68 0 119 -18.5t85 -49t50 -71.5t16 -86q0 -160 -86 -247t-227 -110q-35 -6 -37 -20t8 -31q20 -31 37 -85t17 -140q0 -131 -54.5 -234.5t-147.5 -175t-220 -109.5t-273 -38 q-213 0 -351 53t-219 133t-112.5 172t-31.5 170zM362 373l14 -36q13 -36 63 -81t149.5 -82t271.5 -37q154 0 261.5 26.5t178 64.5t108.5 80t51.5 72t8 40t-21.5 -14q-25 -37 -62.5 -80t-103.5 -79t-167 -59.5t-255 -19.5q-154 2 -250 35t-151.5 69.5t-74.5 68.5zM362 1262 q23 31 52 57q25 23 61.5 43t83.5 27q47 6 91 0.5t79 -13.5t55 -16l21 -8l-18 17q-17 17 -52 33.5t-88 22t-129 -19.5q-49 -16 -79.5 -41t-47.5 -47q-21 -26 -29 -55zM536.5 935q-10.5 -7 20.5 -3q31 2 62.5 -9.5t53 -21.5t29 -10t-11.5 24q-18 25 -53 30t-62.5 1t-38 -11z M961 862q86 66 184 85.5t186 -3.5q111 -29 189.5 -23.5t131 28t79 52t35 50t-2 22.5t-32.5 -31q-35 -51 -91.5 -67.5t-123 -15t-138 10.5t-137.5 11t-119 -16.5t-89 -42t-55 -42t-17 -18.5zM1083 562.5q2 -15.5 13 -27.5q8 -10 8 -2t1 24t8 34.5t32 31.5q25 12 44 10 t31.5 -7t15.5 -7.5t-7 10.5q-18 18 -49 25.5t-60 -7.5q-14 -8 -23.5 -22.5t-12.5 -30.5t-1 -31.5zM1436 1223.5q2 -17.5 12 -29.5q8 -10 12 3t9.5 36.5t16.5 47.5t36 36t47 19t36.5 10.5t13.5 5.5t-24 6q-39 2 -62.5 -3t-47.5 -24q-18 -12 -30.5 -31.5t-16.5 -39t-2 -37z " />
<glyph unicode="&#xbf;" d="M154 483q0 92 27.5 164t67.5 124t84 85t75 47q-41 53 -67 113.5t-26 130.5q0 57 21.5 110.5t62.5 94.5t101.5 65.5t138.5 24.5q100 0 166.5 -52.5t66.5 -162.5q0 -37 -12 -63.5t-29.5 -44t-37 -27t-31.5 -9.5t-6 37q4 27 -5.5 50.5t-27.5 42t-46 28.5t-61 10 q-29 0 -58.5 -12t-54 -34.5t-41 -58.5t-16.5 -81q0 -29 5.5 -68t27.5 -67q20 4 52 17.5t81 13.5q45 0 76 -16.5t31 -67.5q0 -47 -22.5 -73t-78.5 -26q-37 0 -77.5 19.5t-69.5 38.5q-10 12 -19.5 15t-27.5 -11q-45 -35 -73.5 -106.5t-28.5 -149.5q0 -188 148 -293t429 -105 q141 0 247.5 31t179.5 83t110 122t37 145q0 45 -18.5 90t-54.5 81t-90.5 58.5t-125.5 22.5q-68 0 -109 -20.5t-63.5 -48t-29.5 -59.5t-7 -52t7 -39.5t18.5 -35t22.5 -25t17 -9.5q8 0 15.5 9.5t3.5 21.5q-4 14 0 33.5t16 37t29.5 30t42.5 12.5q68 0 97.5 -29t29.5 -74 q0 -51 -33 -92t-129 -41q-41 0 -82 15.5t-72.5 46t-51 78t-19.5 112.5q0 61 24.5 116.5t70.5 98.5t111.5 67.5t147.5 24.5q37 0 67.5 -2t63.5 -5t70 -5t86 -2q47 0 90 11.5t74.5 34t50 56t18.5 78.5q0 20 -10 43t-27.5 41.5t-38 30.5t-40.5 12t-23.5 -15t0.5 -30 q4 -16 1 -35.5t-14.5 -38t-32 -31t-50.5 -12.5q-49 0 -78 31t-29 72q0 61 50.5 100t111.5 39q68 0 119 -18.5t85 -49t50 -71.5t16 -86q0 -160 -86 -247t-227 -110q-35 -6 -37 -20t8 -31q20 -31 37 -85t17 -140q0 -131 -54.5 -234.5t-147.5 -175t-220 -109.5t-273 -38 q-213 0 -351 53t-219 133t-112.5 172t-31.5 170zM362 373l14 -36q13 -36 63 -81t149.5 -82t271.5 -37q154 0 261.5 26.5t178 64.5t108.5 80t51.5 72t8 40t-21.5 -14q-25 -37 -62.5 -80t-103.5 -79t-167 -59.5t-255 -19.5q-154 2 -250 35t-151.5 69.5t-74.5 68.5zM362 1262 q23 31 52 57q25 23 61.5 43t83.5 27q47 6 91 0.5t79 -13.5t55 -16l21 -8l-18 17q-17 17 -52 33.5t-88 22t-129 -19.5q-49 -16 -79.5 -41t-47.5 -47q-21 -26 -29 -55zM536.5 935q-10.5 -7 20.5 -3q31 2 62.5 -9.5t53 -21.5t29 -10t-11.5 24q-18 25 -53 30t-62.5 1t-38 -11z M961 862q86 66 184 85.5t186 -3.5q111 -29 189.5 -23.5t131 28t79 52t35 50t-2 22.5t-32.5 -31q-35 -51 -91.5 -67.5t-123 -15t-138 10.5t-137.5 11t-119 -16.5t-89 -42t-55 -42t-17 -18.5zM1083 562.5q2 -15.5 13 -27.5q8 -10 8 -2t1 24t8 34.5t32 31.5q25 12 44 10 t31.5 -7t15.5 -7.5t-7 10.5q-18 18 -49 25.5t-60 -7.5q-14 -8 -23.5 -22.5t-12.5 -30.5t-1 -31.5zM1436 1223.5q2 -17.5 12 -29.5q8 -10 12 3t9.5 36.5t16.5 47.5t36 36t47 19t36.5 10.5t13.5 5.5t-24 6q-39 2 -62.5 -3t-47.5 -24q-18 -12 -30.5 -31.5t-16.5 -39t-2 -37z " />
<glyph unicode="&#xc0;" d="M154 483q0 92 27.5 164t67.5 124t84 85t75 47q-41 53 -67 113.5t-26 130.5q0 57 21.5 110.5t62.5 94.5t101.5 65.5t138.5 24.5q100 0 166.5 -52.5t66.5 -162.5q0 -37 -12 -63.5t-29.5 -44t-37 -27t-31.5 -9.5t-6 37q4 27 -5.5 50.5t-27.5 42t-46 28.5t-61 10 q-29 0 -58.5 -12t-54 -34.5t-41 -58.5t-16.5 -81q0 -29 5.5 -68t27.5 -67q20 4 52 17.5t81 13.5q45 0 76 -16.5t31 -67.5q0 -47 -22.5 -73t-78.5 -26q-37 0 -77.5 19.5t-69.5 38.5q-10 12 -19.5 15t-27.5 -11q-45 -35 -73.5 -106.5t-28.5 -149.5q0 -188 148 -293t429 -105 q141 0 247.5 31t179.5 83t110 122t37 145q0 45 -18.5 90t-54.5 81t-90.5 58.5t-125.5 22.5q-68 0 -109 -20.5t-63.5 -48t-29.5 -59.5t-7 -52t7 -39.5t18.5 -35t22.5 -25t17 -9.5q8 0 15.5 9.5t3.5 21.5q-4 14 0 33.5t16 37t29.5 30t42.5 12.5q68 0 97.5 -29t29.5 -74 q0 -51 -33 -92t-129 -41q-41 0 -82 15.5t-72.5 46t-51 78t-19.5 112.5q0 61 24.5 116.5t70.5 98.5t111.5 67.5t147.5 24.5q37 0 67.5 -2t63.5 -5t70 -5t86 -2q47 0 90 11.5t74.5 34t50 56t18.5 78.5q0 20 -10 43t-27.5 41.5t-38 30.5t-40.5 12t-23.5 -15t0.5 -30 q4 -16 1 -35.5t-14.5 -38t-32 -31t-50.5 -12.5q-49 0 -78 31t-29 72q0 61 50.5 100t111.5 39q68 0 119 -18.5t85 -49t50 -71.5t16 -86q0 -160 -86 -247t-227 -110q-35 -6 -37 -20t8 -31q20 -31 37 -85t17 -140q0 -131 -54.5 -234.5t-147.5 -175t-220 -109.5t-273 -38 q-213 0 -351 53t-219 133t-112.5 172t-31.5 170zM362 373l14 -36q13 -36 63 -81t149.5 -82t271.5 -37q154 0 261.5 26.5t178 64.5t108.5 80t51.5 72t8 40t-21.5 -14q-25 -37 -62.5 -80t-103.5 -79t-167 -59.5t-255 -19.5q-154 2 -250 35t-151.5 69.5t-74.5 68.5zM362 1262 q23 31 52 57q25 23 61.5 43t83.5 27q47 6 91 0.5t79 -13.5t55 -16l21 -8l-18 17q-17 17 -52 33.5t-88 22t-129 -19.5q-49 -16 -79.5 -41t-47.5 -47q-21 -26 -29 -55zM536.5 935q-10.5 -7 20.5 -3q31 2 62.5 -9.5t53 -21.5t29 -10t-11.5 24q-18 25 -53 30t-62.5 1t-38 -11z M961 862q86 66 184 85.5t186 -3.5q111 -29 189.5 -23.5t131 28t79 52t35 50t-2 22.5t-32.5 -31q-35 -51 -91.5 -67.5t-123 -15t-138 10.5t-137.5 11t-119 -16.5t-89 -42t-55 -42t-17 -18.5zM1083 562.5q2 -15.5 13 -27.5q8 -10 8 -2t1 24t8 34.5t32 31.5q25 12 44 10 t31.5 -7t15.5 -7.5t-7 10.5q-18 18 -49 25.5t-60 -7.5q-14 -8 -23.5 -22.5t-12.5 -30.5t-1 -31.5zM1436 1223.5q2 -17.5 12 -29.5q8 -10 12 3t9.5 36.5t16.5 47.5t36 36t47 19t36.5 10.5t13.5 5.5t-24 6q-39 2 -62.5 -3t-47.5 -24q-18 -12 -30.5 -31.5t-16.5 -39t-2 -37z " />
<glyph unicode="&#xc1;" d="M154 483q0 92 27.5 164t67.5 124t84 85t75 47q-41 53 -67 113.5t-26 130.5q0 57 21.5 110.5t62.5 94.5t101.5 65.5t138.5 24.5q100 0 166.5 -52.5t66.5 -162.5q0 -37 -12 -63.5t-29.5 -44t-37 -27t-31.5 -9.5t-6 37q4 27 -5.5 50.5t-27.5 42t-46 28.5t-61 10 q-29 0 -58.5 -12t-54 -34.5t-41 -58.5t-16.5 -81q0 -29 5.5 -68t27.5 -67q20 4 52 17.5t81 13.5q45 0 76 -16.5t31 -67.5q0 -47 -22.5 -73t-78.5 -26q-37 0 -77.5 19.5t-69.5 38.5q-10 12 -19.5 15t-27.5 -11q-45 -35 -73.5 -106.5t-28.5 -149.5q0 -188 148 -293t429 -105 q141 0 247.5 31t179.5 83t110 122t37 145q0 45 -18.5 90t-54.5 81t-90.5 58.5t-125.5 22.5q-68 0 -109 -20.5t-63.5 -48t-29.5 -59.5t-7 -52t7 -39.5t18.5 -35t22.5 -25t17 -9.5q8 0 15.5 9.5t3.5 21.5q-4 14 0 33.5t16 37t29.5 30t42.5 12.5q68 0 97.5 -29t29.5 -74 q0 -51 -33 -92t-129 -41q-41 0 -82 15.5t-72.5 46t-51 78t-19.5 112.5q0 61 24.5 116.5t70.5 98.5t111.5 67.5t147.5 24.5q37 0 67.5 -2t63.5 -5t70 -5t86 -2q47 0 90 11.5t74.5 34t50 56t18.5 78.5q0 20 -10 43t-27.5 41.5t-38 30.5t-40.5 12t-23.5 -15t0.5 -30 q4 -16 1 -35.5t-14.5 -38t-32 -31t-50.5 -12.5q-49 0 -78 31t-29 72q0 61 50.5 100t111.5 39q68 0 119 -18.5t85 -49t50 -71.5t16 -86q0 -160 -86 -247t-227 -110q-35 -6 -37 -20t8 -31q20 -31 37 -85t17 -140q0 -131 -54.5 -234.5t-147.5 -175t-220 -109.5t-273 -38 q-213 0 -351 53t-219 133t-112.5 172t-31.5 170zM362 373l14 -36q13 -36 63 -81t149.5 -82t271.5 -37q154 0 261.5 26.5t178 64.5t108.5 80t51.5 72t8 40t-21.5 -14q-25 -37 -62.5 -80t-103.5 -79t-167 -59.5t-255 -19.5q-154 2 -250 35t-151.5 69.5t-74.5 68.5zM362 1262 q23 31 52 57q25 23 61.5 43t83.5 27q47 6 91 0.5t79 -13.5t55 -16l21 -8l-18 17q-17 17 -52 33.5t-88 22t-129 -19.5q-49 -16 -79.5 -41t-47.5 -47q-21 -26 -29 -55zM536.5 935q-10.5 -7 20.5 -3q31 2 62.5 -9.5t53 -21.5t29 -10t-11.5 24q-18 25 -53 30t-62.5 1t-38 -11z M961 862q86 66 184 85.5t186 -3.5q111 -29 189.5 -23.5t131 28t79 52t35 50t-2 22.5t-32.5 -31q-35 -51 -91.5 -67.5t-123 -15t-138 10.5t-137.5 11t-119 -16.5t-89 -42t-55 -42t-17 -18.5zM1083 562.5q2 -15.5 13 -27.5q8 -10 8 -2t1 24t8 34.5t32 31.5q25 12 44 10 t31.5 -7t15.5 -7.5t-7 10.5q-18 18 -49 25.5t-60 -7.5q-14 -8 -23.5 -22.5t-12.5 -30.5t-1 -31.5zM1436 1223.5q2 -17.5 12 -29.5q8 -10 12 3t9.5 36.5t16.5 47.5t36 36t47 19t36.5 10.5t13.5 5.5t-24 6q-39 2 -62.5 -3t-47.5 -24q-18 -12 -30.5 -31.5t-16.5 -39t-2 -37z " />
<glyph unicode="&#xc2;" d="M154 483q0 92 27.5 164t67.5 124t84 85t75 47q-41 53 -67 113.5t-26 130.5q0 57 21.5 110.5t62.5 94.5t101.5 65.5t138.5 24.5q100 0 166.5 -52.5t66.5 -162.5q0 -37 -12 -63.5t-29.5 -44t-37 -27t-31.5 -9.5t-6 37q4 27 -5.5 50.5t-27.5 42t-46 28.5t-61 10 q-29 0 -58.5 -12t-54 -34.5t-41 -58.5t-16.5 -81q0 -29 5.5 -68t27.5 -67q20 4 52 17.5t81 13.5q45 0 76 -16.5t31 -67.5q0 -47 -22.5 -73t-78.5 -26q-37 0 -77.5 19.5t-69.5 38.5q-10 12 -19.5 15t-27.5 -11q-45 -35 -73.5 -106.5t-28.5 -149.5q0 -188 148 -293t429 -105 q141 0 247.5 31t179.5 83t110 122t37 145q0 45 -18.5 90t-54.5 81t-90.5 58.5t-125.5 22.5q-68 0 -109 -20.5t-63.5 -48t-29.5 -59.5t-7 -52t7 -39.5t18.5 -35t22.5 -25t17 -9.5q8 0 15.5 9.5t3.5 21.5q-4 14 0 33.5t16 37t29.5 30t42.5 12.5q68 0 97.5 -29t29.5 -74 q0 -51 -33 -92t-129 -41q-41 0 -82 15.5t-72.5 46t-51 78t-19.5 112.5q0 61 24.5 116.5t70.5 98.5t111.5 67.5t147.5 24.5q37 0 67.5 -2t63.5 -5t70 -5t86 -2q47 0 90 11.5t74.5 34t50 56t18.5 78.5q0 20 -10 43t-27.5 41.5t-38 30.5t-40.5 12t-23.5 -15t0.5 -30 q4 -16 1 -35.5t-14.5 -38t-32 -31t-50.5 -12.5q-49 0 -78 31t-29 72q0 61 50.5 100t111.5 39q68 0 119 -18.5t85 -49t50 -71.5t16 -86q0 -160 -86 -247t-227 -110q-35 -6 -37 -20t8 -31q20 -31 37 -85t17 -140q0 -131 -54.5 -234.5t-147.5 -175t-220 -109.5t-273 -38 q-213 0 -351 53t-219 133t-112.5 172t-31.5 170zM362 373l14 -36q13 -36 63 -81t149.5 -82t271.5 -37q154 0 261.5 26.5t178 64.5t108.5 80t51.5 72t8 40t-21.5 -14q-25 -37 -62.5 -80t-103.5 -79t-167 -59.5t-255 -19.5q-154 2 -250 35t-151.5 69.5t-74.5 68.5zM362 1262 q23 31 52 57q25 23 61.5 43t83.5 27q47 6 91 0.5t79 -13.5t55 -16l21 -8l-18 17q-17 17 -52 33.5t-88 22t-129 -19.5q-49 -16 -79.5 -41t-47.5 -47q-21 -26 -29 -55zM536.5 935q-10.5 -7 20.5 -3q31 2 62.5 -9.5t53 -21.5t29 -10t-11.5 24q-18 25 -53 30t-62.5 1t-38 -11z M961 862q86 66 184 85.5t186 -3.5q111 -29 189.5 -23.5t131 28t79 52t35 50t-2 22.5t-32.5 -31q-35 -51 -91.5 -67.5t-123 -15t-138 10.5t-137.5 11t-119 -16.5t-89 -42t-55 -42t-17 -18.5zM1083 562.5q2 -15.5 13 -27.5q8 -10 8 -2t1 24t8 34.5t32 31.5q25 12 44 10 t31.5 -7t15.5 -7.5t-7 10.5q-18 18 -49 25.5t-60 -7.5q-14 -8 -23.5 -22.5t-12.5 -30.5t-1 -31.5zM1436 1223.5q2 -17.5 12 -29.5q8 -10 12 3t9.5 36.5t16.5 47.5t36 36t47 19t36.5 10.5t13.5 5.5t-24 6q-39 2 -62.5 -3t-47.5 -24q-18 -12 -30.5 -31.5t-16.5 -39t-2 -37z " />
<glyph unicode="&#xc3;" d="M154 483q0 92 27.5 164t67.5 124t84 85t75 47q-41 53 -67 113.5t-26 130.5q0 57 21.5 110.5t62.5 94.5t101.5 65.5t138.5 24.5q100 0 166.5 -52.5t66.5 -162.5q0 -37 -12 -63.5t-29.5 -44t-37 -27t-31.5 -9.5t-6 37q4 27 -5.5 50.5t-27.5 42t-46 28.5t-61 10 q-29 0 -58.5 -12t-54 -34.5t-41 -58.5t-16.5 -81q0 -29 5.5 -68t27.5 -67q20 4 52 17.5t81 13.5q45 0 76 -16.5t31 -67.5q0 -47 -22.5 -73t-78.5 -26q-37 0 -77.5 19.5t-69.5 38.5q-10 12 -19.5 15t-27.5 -11q-45 -35 -73.5 -106.5t-28.5 -149.5q0 -188 148 -293t429 -105 q141 0 247.5 31t179.5 83t110 122t37 145q0 45 -18.5 90t-54.5 81t-90.5 58.5t-125.5 22.5q-68 0 -109 -20.5t-63.5 -48t-29.5 -59.5t-7 -52t7 -39.5t18.5 -35t22.5 -25t17 -9.5q8 0 15.5 9.5t3.5 21.5q-4 14 0 33.5t16 37t29.5 30t42.5 12.5q68 0 97.5 -29t29.5 -74 q0 -51 -33 -92t-129 -41q-41 0 -82 15.5t-72.5 46t-51 78t-19.5 112.5q0 61 24.5 116.5t70.5 98.5t111.5 67.5t147.5 24.5q37 0 67.5 -2t63.5 -5t70 -5t86 -2q47 0 90 11.5t74.5 34t50 56t18.5 78.5q0 20 -10 43t-27.5 41.5t-38 30.5t-40.5 12t-23.5 -15t0.5 -30 q4 -16 1 -35.5t-14.5 -38t-32 -31t-50.5 -12.5q-49 0 -78 31t-29 72q0 61 50.5 100t111.5 39q68 0 119 -18.5t85 -49t50 -71.5t16 -86q0 -160 -86 -247t-227 -110q-35 -6 -37 -20t8 -31q20 -31 37 -85t17 -140q0 -131 -54.5 -234.5t-147.5 -175t-220 -109.5t-273 -38 q-213 0 -351 53t-219 133t-112.5 172t-31.5 170zM362 373l14 -36q13 -36 63 -81t149.5 -82t271.5 -37q154 0 261.5 26.5t178 64.5t108.5 80t51.5 72t8 40t-21.5 -14q-25 -37 -62.5 -80t-103.5 -79t-167 -59.5t-255 -19.5q-154 2 -250 35t-151.5 69.5t-74.5 68.5zM362 1262 q23 31 52 57q25 23 61.5 43t83.5 27q47 6 91 0.5t79 -13.5t55 -16l21 -8l-18 17q-17 17 -52 33.5t-88 22t-129 -19.5q-49 -16 -79.5 -41t-47.5 -47q-21 -26 -29 -55zM536.5 935q-10.5 -7 20.5 -3q31 2 62.5 -9.5t53 -21.5t29 -10t-11.5 24q-18 25 -53 30t-62.5 1t-38 -11z M961 862q86 66 184 85.5t186 -3.5q111 -29 189.5 -23.5t131 28t79 52t35 50t-2 22.5t-32.5 -31q-35 -51 -91.5 -67.5t-123 -15t-138 10.5t-137.5 11t-119 -16.5t-89 -42t-55 -42t-17 -18.5zM1083 562.5q2 -15.5 13 -27.5q8 -10 8 -2t1 24t8 34.5t32 31.5q25 12 44 10 t31.5 -7t15.5 -7.5t-7 10.5q-18 18 -49 25.5t-60 -7.5q-14 -8 -23.5 -22.5t-12.5 -30.5t-1 -31.5zM1436 1223.5q2 -17.5 12 -29.5q8 -10 12 3t9.5 36.5t16.5 47.5t36 36t47 19t36.5 10.5t13.5 5.5t-24 6q-39 2 -62.5 -3t-47.5 -24q-18 -12 -30.5 -31.5t-16.5 -39t-2 -37z " />
<glyph unicode="&#xc4;" d="M154 483q0 92 27.5 164t67.5 124t84 85t75 47q-41 53 -67 113.5t-26 130.5q0 57 21.5 110.5t62.5 94.5t101.5 65.5t138.5 24.5q100 0 166.5 -52.5t66.5 -162.5q0 -37 -12 -63.5t-29.5 -44t-37 -27t-31.5 -9.5t-6 37q4 27 -5.5 50.5t-27.5 42t-46 28.5t-61 10 q-29 0 -58.5 -12t-54 -34.5t-41 -58.5t-16.5 -81q0 -29 5.5 -68t27.5 -67q20 4 52 17.5t81 13.5q45 0 76 -16.5t31 -67.5q0 -47 -22.5 -73t-78.5 -26q-37 0 -77.5 19.5t-69.5 38.5q-10 12 -19.5 15t-27.5 -11q-45 -35 -73.5 -106.5t-28.5 -149.5q0 -188 148 -293t429 -105 q141 0 247.5 31t179.5 83t110 122t37 145q0 45 -18.5 90t-54.5 81t-90.5 58.5t-125.5 22.5q-68 0 -109 -20.5t-63.5 -48t-29.5 -59.5t-7 -52t7 -39.5t18.5 -35t22.5 -25t17 -9.5q8 0 15.5 9.5t3.5 21.5q-4 14 0 33.5t16 37t29.5 30t42.5 12.5q68 0 97.5 -29t29.5 -74 q0 -51 -33 -92t-129 -41q-41 0 -82 15.5t-72.5 46t-51 78t-19.5 112.5q0 61 24.5 116.5t70.5 98.5t111.5 67.5t147.5 24.5q37 0 67.5 -2t63.5 -5t70 -5t86 -2q47 0 90 11.5t74.5 34t50 56t18.5 78.5q0 20 -10 43t-27.5 41.5t-38 30.5t-40.5 12t-23.5 -15t0.5 -30 q4 -16 1 -35.5t-14.5 -38t-32 -31t-50.5 -12.5q-49 0 -78 31t-29 72q0 61 50.5 100t111.5 39q68 0 119 -18.5t85 -49t50 -71.5t16 -86q0 -160 -86 -247t-227 -110q-35 -6 -37 -20t8 -31q20 -31 37 -85t17 -140q0 -131 -54.5 -234.5t-147.5 -175t-220 -109.5t-273 -38 q-213 0 -351 53t-219 133t-112.5 172t-31.5 170zM362 373l14 -36q13 -36 63 -81t149.5 -82t271.5 -37q154 0 261.5 26.5t178 64.5t108.5 80t51.5 72t8 40t-21.5 -14q-25 -37 -62.5 -80t-103.5 -79t-167 -59.5t-255 -19.5q-154 2 -250 35t-151.5 69.5t-74.5 68.5zM362 1262 q23 31 52 57q25 23 61.5 43t83.5 27q47 6 91 0.5t79 -13.5t55 -16l21 -8l-18 17q-17 17 -52 33.5t-88 22t-129 -19.5q-49 -16 -79.5 -41t-47.5 -47q-21 -26 -29 -55zM536.5 935q-10.5 -7 20.5 -3q31 2 62.5 -9.5t53 -21.5t29 -10t-11.5 24q-18 25 -53 30t-62.5 1t-38 -11z M961 862q86 66 184 85.5t186 -3.5q111 -29 189.5 -23.5t131 28t79 52t35 50t-2 22.5t-32.5 -31q-35 -51 -91.5 -67.5t-123 -15t-138 10.5t-137.5 11t-119 -16.5t-89 -42t-55 -42t-17 -18.5zM1083 562.5q2 -15.5 13 -27.5q8 -10 8 -2t1 24t8 34.5t32 31.5q25 12 44 10 t31.5 -7t15.5 -7.5t-7 10.5q-18 18 -49 25.5t-60 -7.5q-14 -8 -23.5 -22.5t-12.5 -30.5t-1 -31.5zM1436 1223.5q2 -17.5 12 -29.5q8 -10 12 3t9.5 36.5t16.5 47.5t36 36t47 19t36.5 10.5t13.5 5.5t-24 6q-39 2 -62.5 -3t-47.5 -24q-18 -12 -30.5 -31.5t-16.5 -39t-2 -37z " />
<glyph unicode="&#xc5;" d="M154 483q0 92 27.5 164t67.5 124t84 85t75 47q-41 53 -67 113.5t-26 130.5q0 57 21.5 110.5t62.5 94.5t101.5 65.5t138.5 24.5q100 0 166.5 -52.5t66.5 -162.5q0 -37 -12 -63.5t-29.5 -44t-37 -27t-31.5 -9.5t-6 37q4 27 -5.5 50.5t-27.5 42t-46 28.5t-61 10 q-29 0 -58.5 -12t-54 -34.5t-41 -58.5t-16.5 -81q0 -29 5.5 -68t27.5 -67q20 4 52 17.5t81 13.5q45 0 76 -16.5t31 -67.5q0 -47 -22.5 -73t-78.5 -26q-37 0 -77.5 19.5t-69.5 38.5q-10 12 -19.5 15t-27.5 -11q-45 -35 -73.5 -106.5t-28.5 -149.5q0 -188 148 -293t429 -105 q141 0 247.5 31t179.5 83t110 122t37 145q0 45 -18.5 90t-54.5 81t-90.5 58.5t-125.5 22.5q-68 0 -109 -20.5t-63.5 -48t-29.5 -59.5t-7 -52t7 -39.5t18.5 -35t22.5 -25t17 -9.5q8 0 15.5 9.5t3.5 21.5q-4 14 0 33.5t16 37t29.5 30t42.5 12.5q68 0 97.5 -29t29.5 -74 q0 -51 -33 -92t-129 -41q-41 0 -82 15.5t-72.5 46t-51 78t-19.5 112.5q0 61 24.5 116.5t70.5 98.5t111.5 67.5t147.5 24.5q37 0 67.5 -2t63.5 -5t70 -5t86 -2q47 0 90 11.5t74.5 34t50 56t18.5 78.5q0 20 -10 43t-27.5 41.5t-38 30.5t-40.5 12t-23.5 -15t0.5 -30 q4 -16 1 -35.5t-14.5 -38t-32 -31t-50.5 -12.5q-49 0 -78 31t-29 72q0 61 50.5 100t111.5 39q68 0 119 -18.5t85 -49t50 -71.5t16 -86q0 -160 -86 -247t-227 -110q-35 -6 -37 -20t8 -31q20 -31 37 -85t17 -140q0 -131 -54.5 -234.5t-147.5 -175t-220 -109.5t-273 -38 q-213 0 -351 53t-219 133t-112.5 172t-31.5 170zM362 373l14 -36q13 -36 63 -81t149.5 -82t271.5 -37q154 0 261.5 26.5t178 64.5t108.5 80t51.5 72t8 40t-21.5 -14q-25 -37 -62.5 -80t-103.5 -79t-167 -59.5t-255 -19.5q-154 2 -250 35t-151.5 69.5t-74.5 68.5zM362 1262 q23 31 52 57q25 23 61.5 43t83.5 27q47 6 91 0.5t79 -13.5t55 -16l21 -8l-18 17q-17 17 -52 33.5t-88 22t-129 -19.5q-49 -16 -79.5 -41t-47.5 -47q-21 -26 -29 -55zM536.5 935q-10.5 -7 20.5 -3q31 2 62.5 -9.5t53 -21.5t29 -10t-11.5 24q-18 25 -53 30t-62.5 1t-38 -11z M961 862q86 66 184 85.5t186 -3.5q111 -29 189.5 -23.5t131 28t79 52t35 50t-2 22.5t-32.5 -31q-35 -51 -91.5 -67.5t-123 -15t-138 10.5t-137.5 11t-119 -16.5t-89 -42t-55 -42t-17 -18.5zM1083 562.5q2 -15.5 13 -27.5q8 -10 8 -2t1 24t8 34.5t32 31.5q25 12 44 10 t31.5 -7t15.5 -7.5t-7 10.5q-18 18 -49 25.5t-60 -7.5q-14 -8 -23.5 -22.5t-12.5 -30.5t-1 -31.5zM1436 1223.5q2 -17.5 12 -29.5q8 -10 12 3t9.5 36.5t16.5 47.5t36 36t47 19t36.5 10.5t13.5 5.5t-24 6q-39 2 -62.5 -3t-47.5 -24q-18 -12 -30.5 -31.5t-16.5 -39t-2 -37z " />
<glyph unicode="&#xc6;" d="M154 483q0 92 27.5 164t67.5 124t84 85t75 47q-41 53 -67 113.5t-26 130.5q0 57 21.5 110.5t62.5 94.5t101.5 65.5t138.5 24.5q100 0 166.5 -52.5t66.5 -162.5q0 -37 -12 -63.5t-29.5 -44t-37 -27t-31.5 -9.5t-6 37q4 27 -5.5 50.5t-27.5 42t-46 28.5t-61 10 q-29 0 -58.5 -12t-54 -34.5t-41 -58.5t-16.5 -81q0 -29 5.5 -68t27.5 -67q20 4 52 17.5t81 13.5q45 0 76 -16.5t31 -67.5q0 -47 -22.5 -73t-78.5 -26q-37 0 -77.5 19.5t-69.5 38.5q-10 12 -19.5 15t-27.5 -11q-45 -35 -73.5 -106.5t-28.5 -149.5q0 -188 148 -293t429 -105 q141 0 247.5 31t179.5 83t110 122t37 145q0 45 -18.5 90t-54.5 81t-90.5 58.5t-125.5 22.5q-68 0 -109 -20.5t-63.5 -48t-29.5 -59.5t-7 -52t7 -39.5t18.5 -35t22.5 -25t17 -9.5q8 0 15.5 9.5t3.5 21.5q-4 14 0 33.5t16 37t29.5 30t42.5 12.5q68 0 97.5 -29t29.5 -74 q0 -51 -33 -92t-129 -41q-41 0 -82 15.5t-72.5 46t-51 78t-19.5 112.5q0 61 24.5 116.5t70.5 98.5t111.5 67.5t147.5 24.5q37 0 67.5 -2t63.5 -5t70 -5t86 -2q47 0 90 11.5t74.5 34t50 56t18.5 78.5q0 20 -10 43t-27.5 41.5t-38 30.5t-40.5 12t-23.5 -15t0.5 -30 q4 -16 1 -35.5t-14.5 -38t-32 -31t-50.5 -12.5q-49 0 -78 31t-29 72q0 61 50.5 100t111.5 39q68 0 119 -18.5t85 -49t50 -71.5t16 -86q0 -160 -86 -247t-227 -110q-35 -6 -37 -20t8 -31q20 -31 37 -85t17 -140q0 -131 -54.5 -234.5t-147.5 -175t-220 -109.5t-273 -38 q-213 0 -351 53t-219 133t-112.5 172t-31.5 170zM362 373l14 -36q13 -36 63 -81t149.5 -82t271.5 -37q154 0 261.5 26.5t178 64.5t108.5 80t51.5 72t8 40t-21.5 -14q-25 -37 -62.5 -80t-103.5 -79t-167 -59.5t-255 -19.5q-154 2 -250 35t-151.5 69.5t-74.5 68.5zM362 1262 q23 31 52 57q25 23 61.5 43t83.5 27q47 6 91 0.5t79 -13.5t55 -16l21 -8l-18 17q-17 17 -52 33.5t-88 22t-129 -19.5q-49 -16 -79.5 -41t-47.5 -47q-21 -26 -29 -55zM536.5 935q-10.5 -7 20.5 -3q31 2 62.5 -9.5t53 -21.5t29 -10t-11.5 24q-18 25 -53 30t-62.5 1t-38 -11z M961 862q86 66 184 85.5t186 -3.5q111 -29 189.5 -23.5t131 28t79 52t35 50t-2 22.5t-32.5 -31q-35 -51 -91.5 -67.5t-123 -15t-138 10.5t-137.5 11t-119 -16.5t-89 -42t-55 -42t-17 -18.5zM1083 562.5q2 -15.5 13 -27.5q8 -10 8 -2t1 24t8 34.5t32 31.5q25 12 44 10 t31.5 -7t15.5 -7.5t-7 10.5q-18 18 -49 25.5t-60 -7.5q-14 -8 -23.5 -22.5t-12.5 -30.5t-1 -31.5zM1436 1223.5q2 -17.5 12 -29.5q8 -10 12 3t9.5 36.5t16.5 47.5t36 36t47 19t36.5 10.5t13.5 5.5t-24 6q-39 2 -62.5 -3t-47.5 -24q-18 -12 -30.5 -31.5t-16.5 -39t-2 -37z " />
<glyph unicode="&#xc7;" d="M154 483q0 92 27.5 164t67.5 124t84 85t75 47q-41 53 -67 113.5t-26 130.5q0 57 21.5 110.5t62.5 94.5t101.5 65.5t138.5 24.5q100 0 166.5 -52.5t66.5 -162.5q0 -37 -12 -63.5t-29.5 -44t-37 -27t-31.5 -9.5t-6 37q4 27 -5.5 50.5t-27.5 42t-46 28.5t-61 10 q-29 0 -58.5 -12t-54 -34.5t-41 -58.5t-16.5 -81q0 -29 5.5 -68t27.5 -67q20 4 52 17.5t81 13.5q45 0 76 -16.5t31 -67.5q0 -47 -22.5 -73t-78.5 -26q-37 0 -77.5 19.5t-69.5 38.5q-10 12 -19.5 15t-27.5 -11q-45 -35 -73.5 -106.5t-28.5 -149.5q0 -188 148 -293t429 -105 q141 0 247.5 31t179.5 83t110 122t37 145q0 45 -18.5 90t-54.5 81t-90.5 58.5t-125.5 22.5q-68 0 -109 -20.5t-63.5 -48t-29.5 -59.5t-7 -52t7 -39.5t18.5 -35t22.5 -25t17 -9.5q8 0 15.5 9.5t3.5 21.5q-4 14 0 33.5t16 37t29.5 30t42.5 12.5q68 0 97.5 -29t29.5 -74 q0 -51 -33 -92t-129 -41q-41 0 -82 15.5t-72.5 46t-51 78t-19.5 112.5q0 61 24.5 116.5t70.5 98.5t111.5 67.5t147.5 24.5q37 0 67.5 -2t63.5 -5t70 -5t86 -2q47 0 90 11.5t74.5 34t50 56t18.5 78.5q0 20 -10 43t-27.5 41.5t-38 30.5t-40.5 12t-23.5 -15t0.5 -30 q4 -16 1 -35.5t-14.5 -38t-32 -31t-50.5 -12.5q-49 0 -78 31t-29 72q0 61 50.5 100t111.5 39q68 0 119 -18.5t85 -49t50 -71.5t16 -86q0 -160 -86 -247t-227 -110q-35 -6 -37 -20t8 -31q20 -31 37 -85t17 -140q0 -131 -54.5 -234.5t-147.5 -175t-220 -109.5t-273 -38 q-213 0 -351 53t-219 133t-112.5 172t-31.5 170zM362 373l14 -36q13 -36 63 -81t149.5 -82t271.5 -37q154 0 261.5 26.5t178 64.5t108.5 80t51.5 72t8 40t-21.5 -14q-25 -37 -62.5 -80t-103.5 -79t-167 -59.5t-255 -19.5q-154 2 -250 35t-151.5 69.5t-74.5 68.5zM362 1262 q23 31 52 57q25 23 61.5 43t83.5 27q47 6 91 0.5t79 -13.5t55 -16l21 -8l-18 17q-17 17 -52 33.5t-88 22t-129 -19.5q-49 -16 -79.5 -41t-47.5 -47q-21 -26 -29 -55zM536.5 935q-10.5 -7 20.5 -3q31 2 62.5 -9.5t53 -21.5t29 -10t-11.5 24q-18 25 -53 30t-62.5 1t-38 -11z M961 862q86 66 184 85.5t186 -3.5q111 -29 189.5 -23.5t131 28t79 52t35 50t-2 22.5t-32.5 -31q-35 -51 -91.5 -67.5t-123 -15t-138 10.5t-137.5 11t-119 -16.5t-89 -42t-55 -42t-17 -18.5zM1083 562.5q2 -15.5 13 -27.5q8 -10 8 -2t1 24t8 34.5t32 31.5q25 12 44 10 t31.5 -7t15.5 -7.5t-7 10.5q-18 18 -49 25.5t-60 -7.5q-14 -8 -23.5 -22.5t-12.5 -30.5t-1 -31.5zM1436 1223.5q2 -17.5 12 -29.5q8 -10 12 3t9.5 36.5t16.5 47.5t36 36t47 19t36.5 10.5t13.5 5.5t-24 6q-39 2 -62.5 -3t-47.5 -24q-18 -12 -30.5 -31.5t-16.5 -39t-2 -37z " />
<glyph unicode="&#xc8;" d="M154 483q0 92 27.5 164t67.5 124t84 85t75 47q-41 53 -67 113.5t-26 130.5q0 57 21.5 110.5t62.5 94.5t101.5 65.5t138.5 24.5q100 0 166.5 -52.5t66.5 -162.5q0 -37 -12 -63.5t-29.5 -44t-37 -27t-31.5 -9.5t-6 37q4 27 -5.5 50.5t-27.5 42t-46 28.5t-61 10 q-29 0 -58.5 -12t-54 -34.5t-41 -58.5t-16.5 -81q0 -29 5.5 -68t27.5 -67q20 4 52 17.5t81 13.5q45 0 76 -16.5t31 -67.5q0 -47 -22.5 -73t-78.5 -26q-37 0 -77.5 19.5t-69.5 38.5q-10 12 -19.5 15t-27.5 -11q-45 -35 -73.5 -106.5t-28.5 -149.5q0 -188 148 -293t429 -105 q141 0 247.5 31t179.5 83t110 122t37 145q0 45 -18.5 90t-54.5 81t-90.5 58.5t-125.5 22.5q-68 0 -109 -20.5t-63.5 -48t-29.5 -59.5t-7 -52t7 -39.5t18.5 -35t22.5 -25t17 -9.5q8 0 15.5 9.5t3.5 21.5q-4 14 0 33.5t16 37t29.5 30t42.5 12.5q68 0 97.5 -29t29.5 -74 q0 -51 -33 -92t-129 -41q-41 0 -82 15.5t-72.5 46t-51 78t-19.5 112.5q0 61 24.5 116.5t70.5 98.5t111.5 67.5t147.5 24.5q37 0 67.5 -2t63.5 -5t70 -5t86 -2q47 0 90 11.5t74.5 34t50 56t18.5 78.5q0 20 -10 43t-27.5 41.5t-38 30.5t-40.5 12t-23.5 -15t0.5 -30 q4 -16 1 -35.5t-14.5 -38t-32 -31t-50.5 -12.5q-49 0 -78 31t-29 72q0 61 50.5 100t111.5 39q68 0 119 -18.5t85 -49t50 -71.5t16 -86q0 -160 -86 -247t-227 -110q-35 -6 -37 -20t8 -31q20 -31 37 -85t17 -140q0 -131 -54.5 -234.5t-147.5 -175t-220 -109.5t-273 -38 q-213 0 -351 53t-219 133t-112.5 172t-31.5 170zM362 373l14 -36q13 -36 63 -81t149.5 -82t271.5 -37q154 0 261.5 26.5t178 64.5t108.5 80t51.5 72t8 40t-21.5 -14q-25 -37 -62.5 -80t-103.5 -79t-167 -59.5t-255 -19.5q-154 2 -250 35t-151.5 69.5t-74.5 68.5zM362 1262 q23 31 52 57q25 23 61.5 43t83.5 27q47 6 91 0.5t79 -13.5t55 -16l21 -8l-18 17q-17 17 -52 33.5t-88 22t-129 -19.5q-49 -16 -79.5 -41t-47.5 -47q-21 -26 -29 -55zM536.5 935q-10.5 -7 20.5 -3q31 2 62.5 -9.5t53 -21.5t29 -10t-11.5 24q-18 25 -53 30t-62.5 1t-38 -11z M961 862q86 66 184 85.5t186 -3.5q111 -29 189.5 -23.5t131 28t79 52t35 50t-2 22.5t-32.5 -31q-35 -51 -91.5 -67.5t-123 -15t-138 10.5t-137.5 11t-119 -16.5t-89 -42t-55 -42t-17 -18.5zM1083 562.5q2 -15.5 13 -27.5q8 -10 8 -2t1 24t8 34.5t32 31.5q25 12 44 10 t31.5 -7t15.5 -7.5t-7 10.5q-18 18 -49 25.5t-60 -7.5q-14 -8 -23.5 -22.5t-12.5 -30.5t-1 -31.5zM1436 1223.5q2 -17.5 12 -29.5q8 -10 12 3t9.5 36.5t16.5 47.5t36 36t47 19t36.5 10.5t13.5 5.5t-24 6q-39 2 -62.5 -3t-47.5 -24q-18 -12 -30.5 -31.5t-16.5 -39t-2 -37z " />
<glyph unicode="&#xc9;" d="M154 483q0 92 27.5 164t67.5 124t84 85t75 47q-41 53 -67 113.5t-26 130.5q0 57 21.5 110.5t62.5 94.5t101.5 65.5t138.5 24.5q100 0 166.5 -52.5t66.5 -162.5q0 -37 -12 -63.5t-29.5 -44t-37 -27t-31.5 -9.5t-6 37q4 27 -5.5 50.5t-27.5 42t-46 28.5t-61 10 q-29 0 -58.5 -12t-54 -34.5t-41 -58.5t-16.5 -81q0 -29 5.5 -68t27.5 -67q20 4 52 17.5t81 13.5q45 0 76 -16.5t31 -67.5q0 -47 -22.5 -73t-78.5 -26q-37 0 -77.5 19.5t-69.5 38.5q-10 12 -19.5 15t-27.5 -11q-45 -35 -73.5 -106.5t-28.5 -149.5q0 -188 148 -293t429 -105 q141 0 247.5 31t179.5 83t110 122t37 145q0 45 -18.5 90t-54.5 81t-90.5 58.5t-125.5 22.5q-68 0 -109 -20.5t-63.5 -48t-29.5 -59.5t-7 -52t7 -39.5t18.5 -35t22.5 -25t17 -9.5q8 0 15.5 9.5t3.5 21.5q-4 14 0 33.5t16 37t29.5 30t42.5 12.5q68 0 97.5 -29t29.5 -74 q0 -51 -33 -92t-129 -41q-41 0 -82 15.5t-72.5 46t-51 78t-19.5 112.5q0 61 24.5 116.5t70.5 98.5t111.5 67.5t147.5 24.5q37 0 67.5 -2t63.5 -5t70 -5t86 -2q47 0 90 11.5t74.5 34t50 56t18.5 78.5q0 20 -10 43t-27.5 41.5t-38 30.5t-40.5 12t-23.5 -15t0.5 -30 q4 -16 1 -35.5t-14.5 -38t-32 -31t-50.5 -12.5q-49 0 -78 31t-29 72q0 61 50.5 100t111.5 39q68 0 119 -18.5t85 -49t50 -71.5t16 -86q0 -160 -86 -247t-227 -110q-35 -6 -37 -20t8 -31q20 -31 37 -85t17 -140q0 -131 -54.5 -234.5t-147.5 -175t-220 -109.5t-273 -38 q-213 0 -351 53t-219 133t-112.5 172t-31.5 170zM362 373l14 -36q13 -36 63 -81t149.5 -82t271.5 -37q154 0 261.5 26.5t178 64.5t108.5 80t51.5 72t8 40t-21.5 -14q-25 -37 -62.5 -80t-103.5 -79t-167 -59.5t-255 -19.5q-154 2 -250 35t-151.5 69.5t-74.5 68.5zM362 1262 q23 31 52 57q25 23 61.5 43t83.5 27q47 6 91 0.5t79 -13.5t55 -16l21 -8l-18 17q-17 17 -52 33.5t-88 22t-129 -19.5q-49 -16 -79.5 -41t-47.5 -47q-21 -26 -29 -55zM536.5 935q-10.5 -7 20.5 -3q31 2 62.5 -9.5t53 -21.5t29 -10t-11.5 24q-18 25 -53 30t-62.5 1t-38 -11z M961 862q86 66 184 85.5t186 -3.5q111 -29 189.5 -23.5t131 28t79 52t35 50t-2 22.5t-32.5 -31q-35 -51 -91.5 -67.5t-123 -15t-138 10.5t-137.5 11t-119 -16.5t-89 -42t-55 -42t-17 -18.5zM1083 562.5q2 -15.5 13 -27.5q8 -10 8 -2t1 24t8 34.5t32 31.5q25 12 44 10 t31.5 -7t15.5 -7.5t-7 10.5q-18 18 -49 25.5t-60 -7.5q-14 -8 -23.5 -22.5t-12.5 -30.5t-1 -31.5zM1436 1223.5q2 -17.5 12 -29.5q8 -10 12 3t9.5 36.5t16.5 47.5t36 36t47 19t36.5 10.5t13.5 5.5t-24 6q-39 2 -62.5 -3t-47.5 -24q-18 -12 -30.5 -31.5t-16.5 -39t-2 -37z " />
<glyph unicode="&#xca;" d="M154 483q0 92 27.5 164t67.5 124t84 85t75 47q-41 53 -67 113.5t-26 130.5q0 57 21.5 110.5t62.5 94.5t101.5 65.5t138.5 24.5q100 0 166.5 -52.5t66.5 -162.5q0 -37 -12 -63.5t-29.5 -44t-37 -27t-31.5 -9.5t-6 37q4 27 -5.5 50.5t-27.5 42t-46 28.5t-61 10 q-29 0 -58.5 -12t-54 -34.5t-41 -58.5t-16.5 -81q0 -29 5.5 -68t27.5 -67q20 4 52 17.5t81 13.5q45 0 76 -16.5t31 -67.5q0 -47 -22.5 -73t-78.5 -26q-37 0 -77.5 19.5t-69.5 38.5q-10 12 -19.5 15t-27.5 -11q-45 -35 -73.5 -106.5t-28.5 -149.5q0 -188 148 -293t429 -105 q141 0 247.5 31t179.5 83t110 122t37 145q0 45 -18.5 90t-54.5 81t-90.5 58.5t-125.5 22.5q-68 0 -109 -20.5t-63.5 -48t-29.5 -59.5t-7 -52t7 -39.5t18.5 -35t22.5 -25t17 -9.5q8 0 15.5 9.5t3.5 21.5q-4 14 0 33.5t16 37t29.5 30t42.5 12.5q68 0 97.5 -29t29.5 -74 q0 -51 -33 -92t-129 -41q-41 0 -82 15.5t-72.5 46t-51 78t-19.5 112.5q0 61 24.5 116.5t70.5 98.5t111.5 67.5t147.5 24.5q37 0 67.5 -2t63.5 -5t70 -5t86 -2q47 0 90 11.5t74.5 34t50 56t18.5 78.5q0 20 -10 43t-27.5 41.5t-38 30.5t-40.5 12t-23.5 -15t0.5 -30 q4 -16 1 -35.5t-14.5 -38t-32 -31t-50.5 -12.5q-49 0 -78 31t-29 72q0 61 50.5 100t111.5 39q68 0 119 -18.5t85 -49t50 -71.5t16 -86q0 -160 -86 -247t-227 -110q-35 -6 -37 -20t8 -31q20 -31 37 -85t17 -140q0 -131 -54.5 -234.5t-147.5 -175t-220 -109.5t-273 -38 q-213 0 -351 53t-219 133t-112.5 172t-31.5 170zM362 373l14 -36q13 -36 63 -81t149.5 -82t271.5 -37q154 0 261.5 26.5t178 64.5t108.5 80t51.5 72t8 40t-21.5 -14q-25 -37 -62.5 -80t-103.5 -79t-167 -59.5t-255 -19.5q-154 2 -250 35t-151.5 69.5t-74.5 68.5zM362 1262 q23 31 52 57q25 23 61.5 43t83.5 27q47 6 91 0.5t79 -13.5t55 -16l21 -8l-18 17q-17 17 -52 33.5t-88 22t-129 -19.5q-49 -16 -79.5 -41t-47.5 -47q-21 -26 -29 -55zM536.5 935q-10.5 -7 20.5 -3q31 2 62.5 -9.5t53 -21.5t29 -10t-11.5 24q-18 25 -53 30t-62.5 1t-38 -11z M961 862q86 66 184 85.5t186 -3.5q111 -29 189.5 -23.5t131 28t79 52t35 50t-2 22.5t-32.5 -31q-35 -51 -91.5 -67.5t-123 -15t-138 10.5t-137.5 11t-119 -16.5t-89 -42t-55 -42t-17 -18.5zM1083 562.5q2 -15.5 13 -27.5q8 -10 8 -2t1 24t8 34.5t32 31.5q25 12 44 10 t31.5 -7t15.5 -7.5t-7 10.5q-18 18 -49 25.5t-60 -7.5q-14 -8 -23.5 -22.5t-12.5 -30.5t-1 -31.5zM1436 1223.5q2 -17.5 12 -29.5q8 -10 12 3t9.5 36.5t16.5 47.5t36 36t47 19t36.5 10.5t13.5 5.5t-24 6q-39 2 -62.5 -3t-47.5 -24q-18 -12 -30.5 -31.5t-16.5 -39t-2 -37z " />
<glyph unicode="&#xcb;" d="M154 483q0 92 27.5 164t67.5 124t84 85t75 47q-41 53 -67 113.5t-26 130.5q0 57 21.5 110.5t62.5 94.5t101.5 65.5t138.5 24.5q100 0 166.5 -52.5t66.5 -162.5q0 -37 -12 -63.5t-29.5 -44t-37 -27t-31.5 -9.5t-6 37q4 27 -5.5 50.5t-27.5 42t-46 28.5t-61 10 q-29 0 -58.5 -12t-54 -34.5t-41 -58.5t-16.5 -81q0 -29 5.5 -68t27.5 -67q20 4 52 17.5t81 13.5q45 0 76 -16.5t31 -67.5q0 -47 -22.5 -73t-78.5 -26q-37 0 -77.5 19.5t-69.5 38.5q-10 12 -19.5 15t-27.5 -11q-45 -35 -73.5 -106.5t-28.5 -149.5q0 -188 148 -293t429 -105 q141 0 247.5 31t179.5 83t110 122t37 145q0 45 -18.5 90t-54.5 81t-90.5 58.5t-125.5 22.5q-68 0 -109 -20.5t-63.5 -48t-29.5 -59.5t-7 -52t7 -39.5t18.5 -35t22.5 -25t17 -9.5q8 0 15.5 9.5t3.5 21.5q-4 14 0 33.5t16 37t29.5 30t42.5 12.5q68 0 97.5 -29t29.5 -74 q0 -51 -33 -92t-129 -41q-41 0 -82 15.5t-72.5 46t-51 78t-19.5 112.5q0 61 24.5 116.5t70.5 98.5t111.5 67.5t147.5 24.5q37 0 67.5 -2t63.5 -5t70 -5t86 -2q47 0 90 11.5t74.5 34t50 56t18.5 78.5q0 20 -10 43t-27.5 41.5t-38 30.5t-40.5 12t-23.5 -15t0.5 -30 q4 -16 1 -35.5t-14.5 -38t-32 -31t-50.5 -12.5q-49 0 -78 31t-29 72q0 61 50.5 100t111.5 39q68 0 119 -18.5t85 -49t50 -71.5t16 -86q0 -160 -86 -247t-227 -110q-35 -6 -37 -20t8 -31q20 -31 37 -85t17 -140q0 -131 -54.5 -234.5t-147.5 -175t-220 -109.5t-273 -38 q-213 0 -351 53t-219 133t-112.5 172t-31.5 170zM362 373l14 -36q13 -36 63 -81t149.5 -82t271.5 -37q154 0 261.5 26.5t178 64.5t108.5 80t51.5 72t8 40t-21.5 -14q-25 -37 -62.5 -80t-103.5 -79t-167 -59.5t-255 -19.5q-154 2 -250 35t-151.5 69.5t-74.5 68.5zM362 1262 q23 31 52 57q25 23 61.5 43t83.5 27q47 6 91 0.5t79 -13.5t55 -16l21 -8l-18 17q-17 17 -52 33.5t-88 22t-129 -19.5q-49 -16 -79.5 -41t-47.5 -47q-21 -26 -29 -55zM536.5 935q-10.5 -7 20.5 -3q31 2 62.5 -9.5t53 -21.5t29 -10t-11.5 24q-18 25 -53 30t-62.5 1t-38 -11z M961 862q86 66 184 85.5t186 -3.5q111 -29 189.5 -23.5t131 28t79 52t35 50t-2 22.5t-32.5 -31q-35 -51 -91.5 -67.5t-123 -15t-138 10.5t-137.5 11t-119 -16.5t-89 -42t-55 -42t-17 -18.5zM1083 562.5q2 -15.5 13 -27.5q8 -10 8 -2t1 24t8 34.5t32 31.5q25 12 44 10 t31.5 -7t15.5 -7.5t-7 10.5q-18 18 -49 25.5t-60 -7.5q-14 -8 -23.5 -22.5t-12.5 -30.5t-1 -31.5zM1436 1223.5q2 -17.5 12 -29.5q8 -10 12 3t9.5 36.5t16.5 47.5t36 36t47 19t36.5 10.5t13.5 5.5t-24 6q-39 2 -62.5 -3t-47.5 -24q-18 -12 -30.5 -31.5t-16.5 -39t-2 -37z " />
<glyph unicode="&#xcc;" d="M154 483q0 92 27.5 164t67.5 124t84 85t75 47q-41 53 -67 113.5t-26 130.5q0 57 21.5 110.5t62.5 94.5t101.5 65.5t138.5 24.5q100 0 166.5 -52.5t66.5 -162.5q0 -37 -12 -63.5t-29.5 -44t-37 -27t-31.5 -9.5t-6 37q4 27 -5.5 50.5t-27.5 42t-46 28.5t-61 10 q-29 0 -58.5 -12t-54 -34.5t-41 -58.5t-16.5 -81q0 -29 5.5 -68t27.5 -67q20 4 52 17.5t81 13.5q45 0 76 -16.5t31 -67.5q0 -47 -22.5 -73t-78.5 -26q-37 0 -77.5 19.5t-69.5 38.5q-10 12 -19.5 15t-27.5 -11q-45 -35 -73.5 -106.5t-28.5 -149.5q0 -188 148 -293t429 -105 q141 0 247.5 31t179.5 83t110 122t37 145q0 45 -18.5 90t-54.5 81t-90.5 58.5t-125.5 22.5q-68 0 -109 -20.5t-63.5 -48t-29.5 -59.5t-7 -52t7 -39.5t18.5 -35t22.5 -25t17 -9.5q8 0 15.5 9.5t3.5 21.5q-4 14 0 33.5t16 37t29.5 30t42.5 12.5q68 0 97.5 -29t29.5 -74 q0 -51 -33 -92t-129 -41q-41 0 -82 15.5t-72.5 46t-51 78t-19.5 112.5q0 61 24.5 116.5t70.5 98.5t111.5 67.5t147.5 24.5q37 0 67.5 -2t63.5 -5t70 -5t86 -2q47 0 90 11.5t74.5 34t50 56t18.5 78.5q0 20 -10 43t-27.5 41.5t-38 30.5t-40.5 12t-23.5 -15t0.5 -30 q4 -16 1 -35.5t-14.5 -38t-32 -31t-50.5 -12.5q-49 0 -78 31t-29 72q0 61 50.5 100t111.5 39q68 0 119 -18.5t85 -49t50 -71.5t16 -86q0 -160 -86 -247t-227 -110q-35 -6 -37 -20t8 -31q20 -31 37 -85t17 -140q0 -131 -54.5 -234.5t-147.5 -175t-220 -109.5t-273 -38 q-213 0 -351 53t-219 133t-112.5 172t-31.5 170zM362 373l14 -36q13 -36 63 -81t149.5 -82t271.5 -37q154 0 261.5 26.5t178 64.5t108.5 80t51.5 72t8 40t-21.5 -14q-25 -37 -62.5 -80t-103.5 -79t-167 -59.5t-255 -19.5q-154 2 -250 35t-151.5 69.5t-74.5 68.5zM362 1262 q23 31 52 57q25 23 61.5 43t83.5 27q47 6 91 0.5t79 -13.5t55 -16l21 -8l-18 17q-17 17 -52 33.5t-88 22t-129 -19.5q-49 -16 -79.5 -41t-47.5 -47q-21 -26 -29 -55zM536.5 935q-10.5 -7 20.5 -3q31 2 62.5 -9.5t53 -21.5t29 -10t-11.5 24q-18 25 -53 30t-62.5 1t-38 -11z M961 862q86 66 184 85.5t186 -3.5q111 -29 189.5 -23.5t131 28t79 52t35 50t-2 22.5t-32.5 -31q-35 -51 -91.5 -67.5t-123 -15t-138 10.5t-137.5 11t-119 -16.5t-89 -42t-55 -42t-17 -18.5zM1083 562.5q2 -15.5 13 -27.5q8 -10 8 -2t1 24t8 34.5t32 31.5q25 12 44 10 t31.5 -7t15.5 -7.5t-7 10.5q-18 18 -49 25.5t-60 -7.5q-14 -8 -23.5 -22.5t-12.5 -30.5t-1 -31.5zM1436 1223.5q2 -17.5 12 -29.5q8 -10 12 3t9.5 36.5t16.5 47.5t36 36t47 19t36.5 10.5t13.5 5.5t-24 6q-39 2 -62.5 -3t-47.5 -24q-18 -12 -30.5 -31.5t-16.5 -39t-2 -37z " />
<glyph unicode="&#xcd;" d="M154 483q0 92 27.5 164t67.5 124t84 85t75 47q-41 53 -67 113.5t-26 130.5q0 57 21.5 110.5t62.5 94.5t101.5 65.5t138.5 24.5q100 0 166.5 -52.5t66.5 -162.5q0 -37 -12 -63.5t-29.5 -44t-37 -27t-31.5 -9.5t-6 37q4 27 -5.5 50.5t-27.5 42t-46 28.5t-61 10 q-29 0 -58.5 -12t-54 -34.5t-41 -58.5t-16.5 -81q0 -29 5.5 -68t27.5 -67q20 4 52 17.5t81 13.5q45 0 76 -16.5t31 -67.5q0 -47 -22.5 -73t-78.5 -26q-37 0 -77.5 19.5t-69.5 38.5q-10 12 -19.5 15t-27.5 -11q-45 -35 -73.5 -106.5t-28.5 -149.5q0 -188 148 -293t429 -105 q141 0 247.5 31t179.5 83t110 122t37 145q0 45 -18.5 90t-54.5 81t-90.5 58.5t-125.5 22.5q-68 0 -109 -20.5t-63.5 -48t-29.5 -59.5t-7 -52t7 -39.5t18.5 -35t22.5 -25t17 -9.5q8 0 15.5 9.5t3.5 21.5q-4 14 0 33.5t16 37t29.5 30t42.5 12.5q68 0 97.5 -29t29.5 -74 q0 -51 -33 -92t-129 -41q-41 0 -82 15.5t-72.5 46t-51 78t-19.5 112.5q0 61 24.5 116.5t70.5 98.5t111.5 67.5t147.5 24.5q37 0 67.5 -2t63.5 -5t70 -5t86 -2q47 0 90 11.5t74.5 34t50 56t18.5 78.5q0 20 -10 43t-27.5 41.5t-38 30.5t-40.5 12t-23.5 -15t0.5 -30 q4 -16 1 -35.5t-14.5 -38t-32 -31t-50.5 -12.5q-49 0 -78 31t-29 72q0 61 50.5 100t111.5 39q68 0 119 -18.5t85 -49t50 -71.5t16 -86q0 -160 -86 -247t-227 -110q-35 -6 -37 -20t8 -31q20 -31 37 -85t17 -140q0 -131 -54.5 -234.5t-147.5 -175t-220 -109.5t-273 -38 q-213 0 -351 53t-219 133t-112.5 172t-31.5 170zM362 373l14 -36q13 -36 63 -81t149.5 -82t271.5 -37q154 0 261.5 26.5t178 64.5t108.5 80t51.5 72t8 40t-21.5 -14q-25 -37 -62.5 -80t-103.5 -79t-167 -59.5t-255 -19.5q-154 2 -250 35t-151.5 69.5t-74.5 68.5zM362 1262 q23 31 52 57q25 23 61.5 43t83.5 27q47 6 91 0.5t79 -13.5t55 -16l21 -8l-18 17q-17 17 -52 33.5t-88 22t-129 -19.5q-49 -16 -79.5 -41t-47.5 -47q-21 -26 -29 -55zM536.5 935q-10.5 -7 20.5 -3q31 2 62.5 -9.5t53 -21.5t29 -10t-11.5 24q-18 25 -53 30t-62.5 1t-38 -11z M961 862q86 66 184 85.5t186 -3.5q111 -29 189.5 -23.5t131 28t79 52t35 50t-2 22.5t-32.5 -31q-35 -51 -91.5 -67.5t-123 -15t-138 10.5t-137.5 11t-119 -16.5t-89 -42t-55 -42t-17 -18.5zM1083 562.5q2 -15.5 13 -27.5q8 -10 8 -2t1 24t8 34.5t32 31.5q25 12 44 10 t31.5 -7t15.5 -7.5t-7 10.5q-18 18 -49 25.5t-60 -7.5q-14 -8 -23.5 -22.5t-12.5 -30.5t-1 -31.5zM1436 1223.5q2 -17.5 12 -29.5q8 -10 12 3t9.5 36.5t16.5 47.5t36 36t47 19t36.5 10.5t13.5 5.5t-24 6q-39 2 -62.5 -3t-47.5 -24q-18 -12 -30.5 -31.5t-16.5 -39t-2 -37z " />
<glyph unicode="&#xce;" d="M154 483q0 92 27.5 164t67.5 124t84 85t75 47q-41 53 -67 113.5t-26 130.5q0 57 21.5 110.5t62.5 94.5t101.5 65.5t138.5 24.5q100 0 166.5 -52.5t66.5 -162.5q0 -37 -12 -63.5t-29.5 -44t-37 -27t-31.5 -9.5t-6 37q4 27 -5.5 50.5t-27.5 42t-46 28.5t-61 10 q-29 0 -58.5 -12t-54 -34.5t-41 -58.5t-16.5 -81q0 -29 5.5 -68t27.5 -67q20 4 52 17.5t81 13.5q45 0 76 -16.5t31 -67.5q0 -47 -22.5 -73t-78.5 -26q-37 0 -77.5 19.5t-69.5 38.5q-10 12 -19.5 15t-27.5 -11q-45 -35 -73.5 -106.5t-28.5 -149.5q0 -188 148 -293t429 -105 q141 0 247.5 31t179.5 83t110 122t37 145q0 45 -18.5 90t-54.5 81t-90.5 58.5t-125.5 22.5q-68 0 -109 -20.5t-63.5 -48t-29.5 -59.5t-7 -52t7 -39.5t18.5 -35t22.5 -25t17 -9.5q8 0 15.5 9.5t3.5 21.5q-4 14 0 33.5t16 37t29.5 30t42.5 12.5q68 0 97.5 -29t29.5 -74 q0 -51 -33 -92t-129 -41q-41 0 -82 15.5t-72.5 46t-51 78t-19.5 112.5q0 61 24.5 116.5t70.5 98.5t111.5 67.5t147.5 24.5q37 0 67.5 -2t63.5 -5t70 -5t86 -2q47 0 90 11.5t74.5 34t50 56t18.5 78.5q0 20 -10 43t-27.5 41.5t-38 30.5t-40.5 12t-23.5 -15t0.5 -30 q4 -16 1 -35.5t-14.5 -38t-32 -31t-50.5 -12.5q-49 0 -78 31t-29 72q0 61 50.5 100t111.5 39q68 0 119 -18.5t85 -49t50 -71.5t16 -86q0 -160 -86 -247t-227 -110q-35 -6 -37 -20t8 -31q20 -31 37 -85t17 -140q0 -131 -54.5 -234.5t-147.5 -175t-220 -109.5t-273 -38 q-213 0 -351 53t-219 133t-112.5 172t-31.5 170zM362 373l14 -36q13 -36 63 -81t149.5 -82t271.5 -37q154 0 261.5 26.5t178 64.5t108.5 80t51.5 72t8 40t-21.5 -14q-25 -37 -62.5 -80t-103.5 -79t-167 -59.5t-255 -19.5q-154 2 -250 35t-151.5 69.5t-74.5 68.5zM362 1262 q23 31 52 57q25 23 61.5 43t83.5 27q47 6 91 0.5t79 -13.5t55 -16l21 -8l-18 17q-17 17 -52 33.5t-88 22t-129 -19.5q-49 -16 -79.5 -41t-47.5 -47q-21 -26 -29 -55zM536.5 935q-10.5 -7 20.5 -3q31 2 62.5 -9.5t53 -21.5t29 -10t-11.5 24q-18 25 -53 30t-62.5 1t-38 -11z M961 862q86 66 184 85.5t186 -3.5q111 -29 189.5 -23.5t131 28t79 52t35 50t-2 22.5t-32.5 -31q-35 -51 -91.5 -67.5t-123 -15t-138 10.5t-137.5 11t-119 -16.5t-89 -42t-55 -42t-17 -18.5zM1083 562.5q2 -15.5 13 -27.5q8 -10 8 -2t1 24t8 34.5t32 31.5q25 12 44 10 t31.5 -7t15.5 -7.5t-7 10.5q-18 18 -49 25.5t-60 -7.5q-14 -8 -23.5 -22.5t-12.5 -30.5t-1 -31.5zM1436 1223.5q2 -17.5 12 -29.5q8 -10 12 3t9.5 36.5t16.5 47.5t36 36t47 19t36.5 10.5t13.5 5.5t-24 6q-39 2 -62.5 -3t-47.5 -24q-18 -12 -30.5 -31.5t-16.5 -39t-2 -37z " />
<glyph unicode="&#xcf;" d="M154 483q0 92 27.5 164t67.5 124t84 85t75 47q-41 53 -67 113.5t-26 130.5q0 57 21.5 110.5t62.5 94.5t101.5 65.5t138.5 24.5q100 0 166.5 -52.5t66.5 -162.5q0 -37 -12 -63.5t-29.5 -44t-37 -27t-31.5 -9.5t-6 37q4 27 -5.5 50.5t-27.5 42t-46 28.5t-61 10 q-29 0 -58.5 -12t-54 -34.5t-41 -58.5t-16.5 -81q0 -29 5.5 -68t27.5 -67q20 4 52 17.5t81 13.5q45 0 76 -16.5t31 -67.5q0 -47 -22.5 -73t-78.5 -26q-37 0 -77.5 19.5t-69.5 38.5q-10 12 -19.5 15t-27.5 -11q-45 -35 -73.5 -106.5t-28.5 -149.5q0 -188 148 -293t429 -105 q141 0 247.5 31t179.5 83t110 122t37 145q0 45 -18.5 90t-54.5 81t-90.5 58.5t-125.5 22.5q-68 0 -109 -20.5t-63.5 -48t-29.5 -59.5t-7 -52t7 -39.5t18.5 -35t22.5 -25t17 -9.5q8 0 15.5 9.5t3.5 21.5q-4 14 0 33.5t16 37t29.5 30t42.5 12.5q68 0 97.5 -29t29.5 -74 q0 -51 -33 -92t-129 -41q-41 0 -82 15.5t-72.5 46t-51 78t-19.5 112.5q0 61 24.5 116.5t70.5 98.5t111.5 67.5t147.5 24.5q37 0 67.5 -2t63.5 -5t70 -5t86 -2q47 0 90 11.5t74.5 34t50 56t18.5 78.5q0 20 -10 43t-27.5 41.5t-38 30.5t-40.5 12t-23.5 -15t0.5 -30 q4 -16 1 -35.5t-14.5 -38t-32 -31t-50.5 -12.5q-49 0 -78 31t-29 72q0 61 50.5 100t111.5 39q68 0 119 -18.5t85 -49t50 -71.5t16 -86q0 -160 -86 -247t-227 -110q-35 -6 -37 -20t8 -31q20 -31 37 -85t17 -140q0 -131 -54.5 -234.5t-147.5 -175t-220 -109.5t-273 -38 q-213 0 -351 53t-219 133t-112.5 172t-31.5 170zM362 373l14 -36q13 -36 63 -81t149.5 -82t271.5 -37q154 0 261.5 26.5t178 64.5t108.5 80t51.5 72t8 40t-21.5 -14q-25 -37 -62.5 -80t-103.5 -79t-167 -59.5t-255 -19.5q-154 2 -250 35t-151.5 69.5t-74.5 68.5zM362 1262 q23 31 52 57q25 23 61.5 43t83.5 27q47 6 91 0.5t79 -13.5t55 -16l21 -8l-18 17q-17 17 -52 33.5t-88 22t-129 -19.5q-49 -16 -79.5 -41t-47.5 -47q-21 -26 -29 -55zM536.5 935q-10.5 -7 20.5 -3q31 2 62.5 -9.5t53 -21.5t29 -10t-11.5 24q-18 25 -53 30t-62.5 1t-38 -11z M961 862q86 66 184 85.5t186 -3.5q111 -29 189.5 -23.5t131 28t79 52t35 50t-2 22.5t-32.5 -31q-35 -51 -91.5 -67.5t-123 -15t-138 10.5t-137.5 11t-119 -16.5t-89 -42t-55 -42t-17 -18.5zM1083 562.5q2 -15.5 13 -27.5q8 -10 8 -2t1 24t8 34.5t32 31.5q25 12 44 10 t31.5 -7t15.5 -7.5t-7 10.5q-18 18 -49 25.5t-60 -7.5q-14 -8 -23.5 -22.5t-12.5 -30.5t-1 -31.5zM1436 1223.5q2 -17.5 12 -29.5q8 -10 12 3t9.5 36.5t16.5 47.5t36 36t47 19t36.5 10.5t13.5 5.5t-24 6q-39 2 -62.5 -3t-47.5 -24q-18 -12 -30.5 -31.5t-16.5 -39t-2 -37z " />
<glyph unicode="&#xd0;" d="M154 483q0 92 27.5 164t67.5 124t84 85t75 47q-41 53 -67 113.5t-26 130.5q0 57 21.5 110.5t62.5 94.5t101.5 65.5t138.5 24.5q100 0 166.5 -52.5t66.5 -162.5q0 -37 -12 -63.5t-29.5 -44t-37 -27t-31.5 -9.5t-6 37q4 27 -5.5 50.5t-27.5 42t-46 28.5t-61 10 q-29 0 -58.5 -12t-54 -34.5t-41 -58.5t-16.5 -81q0 -29 5.5 -68t27.5 -67q20 4 52 17.5t81 13.5q45 0 76 -16.5t31 -67.5q0 -47 -22.5 -73t-78.5 -26q-37 0 -77.5 19.5t-69.5 38.5q-10 12 -19.5 15t-27.5 -11q-45 -35 -73.5 -106.5t-28.5 -149.5q0 -188 148 -293t429 -105 q141 0 247.5 31t179.5 83t110 122t37 145q0 45 -18.5 90t-54.5 81t-90.5 58.5t-125.5 22.5q-68 0 -109 -20.5t-63.5 -48t-29.5 -59.5t-7 -52t7 -39.5t18.5 -35t22.5 -25t17 -9.5q8 0 15.5 9.5t3.5 21.5q-4 14 0 33.5t16 37t29.5 30t42.5 12.5q68 0 97.5 -29t29.5 -74 q0 -51 -33 -92t-129 -41q-41 0 -82 15.5t-72.5 46t-51 78t-19.5 112.5q0 61 24.5 116.5t70.5 98.5t111.5 67.5t147.5 24.5q37 0 67.5 -2t63.5 -5t70 -5t86 -2q47 0 90 11.5t74.5 34t50 56t18.5 78.5q0 20 -10 43t-27.5 41.5t-38 30.5t-40.5 12t-23.5 -15t0.5 -30 q4 -16 1 -35.5t-14.5 -38t-32 -31t-50.5 -12.5q-49 0 -78 31t-29 72q0 61 50.5 100t111.5 39q68 0 119 -18.5t85 -49t50 -71.5t16 -86q0 -160 -86 -247t-227 -110q-35 -6 -37 -20t8 -31q20 -31 37 -85t17 -140q0 -131 -54.5 -234.5t-147.5 -175t-220 -109.5t-273 -38 q-213 0 -351 53t-219 133t-112.5 172t-31.5 170zM362 373l14 -36q13 -36 63 -81t149.5 -82t271.5 -37q154 0 261.5 26.5t178 64.5t108.5 80t51.5 72t8 40t-21.5 -14q-25 -37 -62.5 -80t-103.5 -79t-167 -59.5t-255 -19.5q-154 2 -250 35t-151.5 69.5t-74.5 68.5zM362 1262 q23 31 52 57q25 23 61.5 43t83.5 27q47 6 91 0.5t79 -13.5t55 -16l21 -8l-18 17q-17 17 -52 33.5t-88 22t-129 -19.5q-49 -16 -79.5 -41t-47.5 -47q-21 -26 -29 -55zM536.5 935q-10.5 -7 20.5 -3q31 2 62.5 -9.5t53 -21.5t29 -10t-11.5 24q-18 25 -53 30t-62.5 1t-38 -11z M961 862q86 66 184 85.5t186 -3.5q111 -29 189.5 -23.5t131 28t79 52t35 50t-2 22.5t-32.5 -31q-35 -51 -91.5 -67.5t-123 -15t-138 10.5t-137.5 11t-119 -16.5t-89 -42t-55 -42t-17 -18.5zM1083 562.5q2 -15.5 13 -27.5q8 -10 8 -2t1 24t8 34.5t32 31.5q25 12 44 10 t31.5 -7t15.5 -7.5t-7 10.5q-18 18 -49 25.5t-60 -7.5q-14 -8 -23.5 -22.5t-12.5 -30.5t-1 -31.5zM1436 1223.5q2 -17.5 12 -29.5q8 -10 12 3t9.5 36.5t16.5 47.5t36 36t47 19t36.5 10.5t13.5 5.5t-24 6q-39 2 -62.5 -3t-47.5 -24q-18 -12 -30.5 -31.5t-16.5 -39t-2 -37z " />
<glyph unicode="&#xd1;" d="M154 483q0 92 27.5 164t67.5 124t84 85t75 47q-41 53 -67 113.5t-26 130.5q0 57 21.5 110.5t62.5 94.5t101.5 65.5t138.5 24.5q100 0 166.5 -52.5t66.5 -162.5q0 -37 -12 -63.5t-29.5 -44t-37 -27t-31.5 -9.5t-6 37q4 27 -5.5 50.5t-27.5 42t-46 28.5t-61 10 q-29 0 -58.5 -12t-54 -34.5t-41 -58.5t-16.5 -81q0 -29 5.5 -68t27.5 -67q20 4 52 17.5t81 13.5q45 0 76 -16.5t31 -67.5q0 -47 -22.5 -73t-78.5 -26q-37 0 -77.5 19.5t-69.5 38.5q-10 12 -19.5 15t-27.5 -11q-45 -35 -73.5 -106.5t-28.5 -149.5q0 -188 148 -293t429 -105 q141 0 247.5 31t179.5 83t110 122t37 145q0 45 -18.5 90t-54.5 81t-90.5 58.5t-125.5 22.5q-68 0 -109 -20.5t-63.5 -48t-29.5 -59.5t-7 -52t7 -39.5t18.5 -35t22.5 -25t17 -9.5q8 0 15.5 9.5t3.5 21.5q-4 14 0 33.5t16 37t29.5 30t42.5 12.5q68 0 97.5 -29t29.5 -74 q0 -51 -33 -92t-129 -41q-41 0 -82 15.5t-72.5 46t-51 78t-19.5 112.5q0 61 24.5 116.5t70.5 98.5t111.5 67.5t147.5 24.5q37 0 67.5 -2t63.5 -5t70 -5t86 -2q47 0 90 11.5t74.5 34t50 56t18.5 78.5q0 20 -10 43t-27.5 41.5t-38 30.5t-40.5 12t-23.5 -15t0.5 -30 q4 -16 1 -35.5t-14.5 -38t-32 -31t-50.5 -12.5q-49 0 -78 31t-29 72q0 61 50.5 100t111.5 39q68 0 119 -18.5t85 -49t50 -71.5t16 -86q0 -160 -86 -247t-227 -110q-35 -6 -37 -20t8 -31q20 -31 37 -85t17 -140q0 -131 -54.5 -234.5t-147.5 -175t-220 -109.5t-273 -38 q-213 0 -351 53t-219 133t-112.5 172t-31.5 170zM362 373l14 -36q13 -36 63 -81t149.5 -82t271.5 -37q154 0 261.5 26.5t178 64.5t108.5 80t51.5 72t8 40t-21.5 -14q-25 -37 -62.5 -80t-103.5 -79t-167 -59.5t-255 -19.5q-154 2 -250 35t-151.5 69.5t-74.5 68.5zM362 1262 q23 31 52 57q25 23 61.5 43t83.5 27q47 6 91 0.5t79 -13.5t55 -16l21 -8l-18 17q-17 17 -52 33.5t-88 22t-129 -19.5q-49 -16 -79.5 -41t-47.5 -47q-21 -26 -29 -55zM536.5 935q-10.5 -7 20.5 -3q31 2 62.5 -9.5t53 -21.5t29 -10t-11.5 24q-18 25 -53 30t-62.5 1t-38 -11z M961 862q86 66 184 85.5t186 -3.5q111 -29 189.5 -23.5t131 28t79 52t35 50t-2 22.5t-32.5 -31q-35 -51 -91.5 -67.5t-123 -15t-138 10.5t-137.5 11t-119 -16.5t-89 -42t-55 -42t-17 -18.5zM1083 562.5q2 -15.5 13 -27.5q8 -10 8 -2t1 24t8 34.5t32 31.5q25 12 44 10 t31.5 -7t15.5 -7.5t-7 10.5q-18 18 -49 25.5t-60 -7.5q-14 -8 -23.5 -22.5t-12.5 -30.5t-1 -31.5zM1436 1223.5q2 -17.5 12 -29.5q8 -10 12 3t9.5 36.5t16.5 47.5t36 36t47 19t36.5 10.5t13.5 5.5t-24 6q-39 2 -62.5 -3t-47.5 -24q-18 -12 -30.5 -31.5t-16.5 -39t-2 -37z " />
<glyph unicode="&#xd2;" d="M154 483q0 92 27.5 164t67.5 124t84 85t75 47q-41 53 -67 113.5t-26 130.5q0 57 21.5 110.5t62.5 94.5t101.5 65.5t138.5 24.5q100 0 166.5 -52.5t66.5 -162.5q0 -37 -12 -63.5t-29.5 -44t-37 -27t-31.5 -9.5t-6 37q4 27 -5.5 50.5t-27.5 42t-46 28.5t-61 10 q-29 0 -58.5 -12t-54 -34.5t-41 -58.5t-16.5 -81q0 -29 5.5 -68t27.5 -67q20 4 52 17.5t81 13.5q45 0 76 -16.5t31 -67.5q0 -47 -22.5 -73t-78.5 -26q-37 0 -77.5 19.5t-69.5 38.5q-10 12 -19.5 15t-27.5 -11q-45 -35 -73.5 -106.5t-28.5 -149.5q0 -188 148 -293t429 -105 q141 0 247.5 31t179.5 83t110 122t37 145q0 45 -18.5 90t-54.5 81t-90.5 58.5t-125.5 22.5q-68 0 -109 -20.5t-63.5 -48t-29.5 -59.5t-7 -52t7 -39.5t18.5 -35t22.5 -25t17 -9.5q8 0 15.5 9.5t3.5 21.5q-4 14 0 33.5t16 37t29.5 30t42.5 12.5q68 0 97.5 -29t29.5 -74 q0 -51 -33 -92t-129 -41q-41 0 -82 15.5t-72.5 46t-51 78t-19.5 112.5q0 61 24.5 116.5t70.5 98.5t111.5 67.5t147.5 24.5q37 0 67.5 -2t63.5 -5t70 -5t86 -2q47 0 90 11.5t74.5 34t50 56t18.5 78.5q0 20 -10 43t-27.5 41.5t-38 30.5t-40.5 12t-23.5 -15t0.5 -30 q4 -16 1 -35.5t-14.5 -38t-32 -31t-50.5 -12.5q-49 0 -78 31t-29 72q0 61 50.5 100t111.5 39q68 0 119 -18.5t85 -49t50 -71.5t16 -86q0 -160 -86 -247t-227 -110q-35 -6 -37 -20t8 -31q20 -31 37 -85t17 -140q0 -131 -54.5 -234.5t-147.5 -175t-220 -109.5t-273 -38 q-213 0 -351 53t-219 133t-112.5 172t-31.5 170zM362 373l14 -36q13 -36 63 -81t149.5 -82t271.5 -37q154 0 261.5 26.5t178 64.5t108.5 80t51.5 72t8 40t-21.5 -14q-25 -37 -62.5 -80t-103.5 -79t-167 -59.5t-255 -19.5q-154 2 -250 35t-151.5 69.5t-74.5 68.5zM362 1262 q23 31 52 57q25 23 61.5 43t83.5 27q47 6 91 0.5t79 -13.5t55 -16l21 -8l-18 17q-17 17 -52 33.5t-88 22t-129 -19.5q-49 -16 -79.5 -41t-47.5 -47q-21 -26 -29 -55zM536.5 935q-10.5 -7 20.5 -3q31 2 62.5 -9.5t53 -21.5t29 -10t-11.5 24q-18 25 -53 30t-62.5 1t-38 -11z M961 862q86 66 184 85.5t186 -3.5q111 -29 189.5 -23.5t131 28t79 52t35 50t-2 22.5t-32.5 -31q-35 -51 -91.5 -67.5t-123 -15t-138 10.5t-137.5 11t-119 -16.5t-89 -42t-55 -42t-17 -18.5zM1083 562.5q2 -15.5 13 -27.5q8 -10 8 -2t1 24t8 34.5t32 31.5q25 12 44 10 t31.5 -7t15.5 -7.5t-7 10.5q-18 18 -49 25.5t-60 -7.5q-14 -8 -23.5 -22.5t-12.5 -30.5t-1 -31.5zM1436 1223.5q2 -17.5 12 -29.5q8 -10 12 3t9.5 36.5t16.5 47.5t36 36t47 19t36.5 10.5t13.5 5.5t-24 6q-39 2 -62.5 -3t-47.5 -24q-18 -12 -30.5 -31.5t-16.5 -39t-2 -37z " />
<glyph unicode="&#xd3;" d="M154 483q0 92 27.5 164t67.5 124t84 85t75 47q-41 53 -67 113.5t-26 130.5q0 57 21.5 110.5t62.5 94.5t101.5 65.5t138.5 24.5q100 0 166.5 -52.5t66.5 -162.5q0 -37 -12 -63.5t-29.5 -44t-37 -27t-31.5 -9.5t-6 37q4 27 -5.5 50.5t-27.5 42t-46 28.5t-61 10 q-29 0 -58.5 -12t-54 -34.5t-41 -58.5t-16.5 -81q0 -29 5.5 -68t27.5 -67q20 4 52 17.5t81 13.5q45 0 76 -16.5t31 -67.5q0 -47 -22.5 -73t-78.5 -26q-37 0 -77.5 19.5t-69.5 38.5q-10 12 -19.5 15t-27.5 -11q-45 -35 -73.5 -106.5t-28.5 -149.5q0 -188 148 -293t429 -105 q141 0 247.5 31t179.5 83t110 122t37 145q0 45 -18.5 90t-54.5 81t-90.5 58.5t-125.5 22.5q-68 0 -109 -20.5t-63.5 -48t-29.5 -59.5t-7 -52t7 -39.5t18.5 -35t22.5 -25t17 -9.5q8 0 15.5 9.5t3.5 21.5q-4 14 0 33.5t16 37t29.5 30t42.5 12.5q68 0 97.5 -29t29.5 -74 q0 -51 -33 -92t-129 -41q-41 0 -82 15.5t-72.5 46t-51 78t-19.5 112.5q0 61 24.5 116.5t70.5 98.5t111.5 67.5t147.5 24.5q37 0 67.5 -2t63.5 -5t70 -5t86 -2q47 0 90 11.5t74.5 34t50 56t18.5 78.5q0 20 -10 43t-27.5 41.5t-38 30.5t-40.5 12t-23.5 -15t0.5 -30 q4 -16 1 -35.5t-14.5 -38t-32 -31t-50.5 -12.5q-49 0 -78 31t-29 72q0 61 50.5 100t111.5 39q68 0 119 -18.5t85 -49t50 -71.5t16 -86q0 -160 -86 -247t-227 -110q-35 -6 -37 -20t8 -31q20 -31 37 -85t17 -140q0 -131 -54.5 -234.5t-147.5 -175t-220 -109.5t-273 -38 q-213 0 -351 53t-219 133t-112.5 172t-31.5 170zM362 373l14 -36q13 -36 63 -81t149.5 -82t271.5 -37q154 0 261.5 26.5t178 64.5t108.5 80t51.5 72t8 40t-21.5 -14q-25 -37 -62.5 -80t-103.5 -79t-167 -59.5t-255 -19.5q-154 2 -250 35t-151.5 69.5t-74.5 68.5zM362 1262 q23 31 52 57q25 23 61.5 43t83.5 27q47 6 91 0.5t79 -13.5t55 -16l21 -8l-18 17q-17 17 -52 33.5t-88 22t-129 -19.5q-49 -16 -79.5 -41t-47.5 -47q-21 -26 -29 -55zM536.5 935q-10.5 -7 20.5 -3q31 2 62.5 -9.5t53 -21.5t29 -10t-11.5 24q-18 25 -53 30t-62.5 1t-38 -11z M961 862q86 66 184 85.5t186 -3.5q111 -29 189.5 -23.5t131 28t79 52t35 50t-2 22.5t-32.5 -31q-35 -51 -91.5 -67.5t-123 -15t-138 10.5t-137.5 11t-119 -16.5t-89 -42t-55 -42t-17 -18.5zM1083 562.5q2 -15.5 13 -27.5q8 -10 8 -2t1 24t8 34.5t32 31.5q25 12 44 10 t31.5 -7t15.5 -7.5t-7 10.5q-18 18 -49 25.5t-60 -7.5q-14 -8 -23.5 -22.5t-12.5 -30.5t-1 -31.5zM1436 1223.5q2 -17.5 12 -29.5q8 -10 12 3t9.5 36.5t16.5 47.5t36 36t47 19t36.5 10.5t13.5 5.5t-24 6q-39 2 -62.5 -3t-47.5 -24q-18 -12 -30.5 -31.5t-16.5 -39t-2 -37z " />
<glyph unicode="&#xd4;" d="M154 483q0 92 27.5 164t67.5 124t84 85t75 47q-41 53 -67 113.5t-26 130.5q0 57 21.5 110.5t62.5 94.5t101.5 65.5t138.5 24.5q100 0 166.5 -52.5t66.5 -162.5q0 -37 -12 -63.5t-29.5 -44t-37 -27t-31.5 -9.5t-6 37q4 27 -5.5 50.5t-27.5 42t-46 28.5t-61 10 q-29 0 -58.5 -12t-54 -34.5t-41 -58.5t-16.5 -81q0 -29 5.5 -68t27.5 -67q20 4 52 17.5t81 13.5q45 0 76 -16.5t31 -67.5q0 -47 -22.5 -73t-78.5 -26q-37 0 -77.5 19.5t-69.5 38.5q-10 12 -19.5 15t-27.5 -11q-45 -35 -73.5 -106.5t-28.5 -149.5q0 -188 148 -293t429 -105 q141 0 247.5 31t179.5 83t110 122t37 145q0 45 -18.5 90t-54.5 81t-90.5 58.5t-125.5 22.5q-68 0 -109 -20.5t-63.5 -48t-29.5 -59.5t-7 -52t7 -39.5t18.5 -35t22.5 -25t17 -9.5q8 0 15.5 9.5t3.5 21.5q-4 14 0 33.5t16 37t29.5 30t42.5 12.5q68 0 97.5 -29t29.5 -74 q0 -51 -33 -92t-129 -41q-41 0 -82 15.5t-72.5 46t-51 78t-19.5 112.5q0 61 24.5 116.5t70.5 98.5t111.5 67.5t147.5 24.5q37 0 67.5 -2t63.5 -5t70 -5t86 -2q47 0 90 11.5t74.5 34t50 56t18.5 78.5q0 20 -10 43t-27.5 41.5t-38 30.5t-40.5 12t-23.5 -15t0.5 -30 q4 -16 1 -35.5t-14.5 -38t-32 -31t-50.5 -12.5q-49 0 -78 31t-29 72q0 61 50.5 100t111.5 39q68 0 119 -18.5t85 -49t50 -71.5t16 -86q0 -160 -86 -247t-227 -110q-35 -6 -37 -20t8 -31q20 -31 37 -85t17 -140q0 -131 -54.5 -234.5t-147.5 -175t-220 -109.5t-273 -38 q-213 0 -351 53t-219 133t-112.5 172t-31.5 170zM362 373l14 -36q13 -36 63 -81t149.5 -82t271.5 -37q154 0 261.5 26.5t178 64.5t108.5 80t51.5 72t8 40t-21.5 -14q-25 -37 -62.5 -80t-103.5 -79t-167 -59.5t-255 -19.5q-154 2 -250 35t-151.5 69.5t-74.5 68.5zM362 1262 q23 31 52 57q25 23 61.5 43t83.5 27q47 6 91 0.5t79 -13.5t55 -16l21 -8l-18 17q-17 17 -52 33.5t-88 22t-129 -19.5q-49 -16 -79.5 -41t-47.5 -47q-21 -26 -29 -55zM536.5 935q-10.5 -7 20.5 -3q31 2 62.5 -9.5t53 -21.5t29 -10t-11.5 24q-18 25 -53 30t-62.5 1t-38 -11z M961 862q86 66 184 85.5t186 -3.5q111 -29 189.5 -23.5t131 28t79 52t35 50t-2 22.5t-32.5 -31q-35 -51 -91.5 -67.5t-123 -15t-138 10.5t-137.5 11t-119 -16.5t-89 -42t-55 -42t-17 -18.5zM1083 562.5q2 -15.5 13 -27.5q8 -10 8 -2t1 24t8 34.5t32 31.5q25 12 44 10 t31.5 -7t15.5 -7.5t-7 10.5q-18 18 -49 25.5t-60 -7.5q-14 -8 -23.5 -22.5t-12.5 -30.5t-1 -31.5zM1436 1223.5q2 -17.5 12 -29.5q8 -10 12 3t9.5 36.5t16.5 47.5t36 36t47 19t36.5 10.5t13.5 5.5t-24 6q-39 2 -62.5 -3t-47.5 -24q-18 -12 -30.5 -31.5t-16.5 -39t-2 -37z " />
<glyph unicode="&#xd5;" d="M154 483q0 92 27.5 164t67.5 124t84 85t75 47q-41 53 -67 113.5t-26 130.5q0 57 21.5 110.5t62.5 94.5t101.5 65.5t138.5 24.5q100 0 166.5 -52.5t66.5 -162.5q0 -37 -12 -63.5t-29.5 -44t-37 -27t-31.5 -9.5t-6 37q4 27 -5.5 50.5t-27.5 42t-46 28.5t-61 10 q-29 0 -58.5 -12t-54 -34.5t-41 -58.5t-16.5 -81q0 -29 5.5 -68t27.5 -67q20 4 52 17.5t81 13.5q45 0 76 -16.5t31 -67.5q0 -47 -22.5 -73t-78.5 -26q-37 0 -77.5 19.5t-69.5 38.5q-10 12 -19.5 15t-27.5 -11q-45 -35 -73.5 -106.5t-28.5 -149.5q0 -188 148 -293t429 -105 q141 0 247.5 31t179.5 83t110 122t37 145q0 45 -18.5 90t-54.5 81t-90.5 58.5t-125.5 22.5q-68 0 -109 -20.5t-63.5 -48t-29.5 -59.5t-7 -52t7 -39.5t18.5 -35t22.5 -25t17 -9.5q8 0 15.5 9.5t3.5 21.5q-4 14 0 33.5t16 37t29.5 30t42.5 12.5q68 0 97.5 -29t29.5 -74 q0 -51 -33 -92t-129 -41q-41 0 -82 15.5t-72.5 46t-51 78t-19.5 112.5q0 61 24.5 116.5t70.5 98.5t111.5 67.5t147.5 24.5q37 0 67.5 -2t63.5 -5t70 -5t86 -2q47 0 90 11.5t74.5 34t50 56t18.5 78.5q0 20 -10 43t-27.5 41.5t-38 30.5t-40.5 12t-23.5 -15t0.5 -30 q4 -16 1 -35.5t-14.5 -38t-32 -31t-50.5 -12.5q-49 0 -78 31t-29 72q0 61 50.5 100t111.5 39q68 0 119 -18.5t85 -49t50 -71.5t16 -86q0 -160 -86 -247t-227 -110q-35 -6 -37 -20t8 -31q20 -31 37 -85t17 -140q0 -131 -54.5 -234.5t-147.5 -175t-220 -109.5t-273 -38 q-213 0 -351 53t-219 133t-112.5 172t-31.5 170zM362 373l14 -36q13 -36 63 -81t149.5 -82t271.5 -37q154 0 261.5 26.5t178 64.5t108.5 80t51.5 72t8 40t-21.5 -14q-25 -37 -62.5 -80t-103.5 -79t-167 -59.5t-255 -19.5q-154 2 -250 35t-151.5 69.5t-74.5 68.5zM362 1262 q23 31 52 57q25 23 61.5 43t83.5 27q47 6 91 0.5t79 -13.5t55 -16l21 -8l-18 17q-17 17 -52 33.5t-88 22t-129 -19.5q-49 -16 -79.5 -41t-47.5 -47q-21 -26 -29 -55zM536.5 935q-10.5 -7 20.5 -3q31 2 62.5 -9.5t53 -21.5t29 -10t-11.5 24q-18 25 -53 30t-62.5 1t-38 -11z M961 862q86 66 184 85.5t186 -3.5q111 -29 189.5 -23.5t131 28t79 52t35 50t-2 22.5t-32.5 -31q-35 -51 -91.5 -67.5t-123 -15t-138 10.5t-137.5 11t-119 -16.5t-89 -42t-55 -42t-17 -18.5zM1083 562.5q2 -15.5 13 -27.5q8 -10 8 -2t1 24t8 34.5t32 31.5q25 12 44 10 t31.5 -7t15.5 -7.5t-7 10.5q-18 18 -49 25.5t-60 -7.5q-14 -8 -23.5 -22.5t-12.5 -30.5t-1 -31.5zM1436 1223.5q2 -17.5 12 -29.5q8 -10 12 3t9.5 36.5t16.5 47.5t36 36t47 19t36.5 10.5t13.5 5.5t-24 6q-39 2 -62.5 -3t-47.5 -24q-18 -12 -30.5 -31.5t-16.5 -39t-2 -37z " />
<glyph unicode="&#xd6;" d="M154 483q0 92 27.5 164t67.5 124t84 85t75 47q-41 53 -67 113.5t-26 130.5q0 57 21.5 110.5t62.5 94.5t101.5 65.5t138.5 24.5q100 0 166.5 -52.5t66.5 -162.5q0 -37 -12 -63.5t-29.5 -44t-37 -27t-31.5 -9.5t-6 37q4 27 -5.5 50.5t-27.5 42t-46 28.5t-61 10 q-29 0 -58.5 -12t-54 -34.5t-41 -58.5t-16.5 -81q0 -29 5.5 -68t27.5 -67q20 4 52 17.5t81 13.5q45 0 76 -16.5t31 -67.5q0 -47 -22.5 -73t-78.5 -26q-37 0 -77.5 19.5t-69.5 38.5q-10 12 -19.5 15t-27.5 -11q-45 -35 -73.5 -106.5t-28.5 -149.5q0 -188 148 -293t429 -105 q141 0 247.5 31t179.5 83t110 122t37 145q0 45 -18.5 90t-54.5 81t-90.5 58.5t-125.5 22.5q-68 0 -109 -20.5t-63.5 -48t-29.5 -59.5t-7 -52t7 -39.5t18.5 -35t22.5 -25t17 -9.5q8 0 15.5 9.5t3.5 21.5q-4 14 0 33.5t16 37t29.5 30t42.5 12.5q68 0 97.5 -29t29.5 -74 q0 -51 -33 -92t-129 -41q-41 0 -82 15.5t-72.5 46t-51 78t-19.5 112.5q0 61 24.5 116.5t70.5 98.5t111.5 67.5t147.5 24.5q37 0 67.5 -2t63.5 -5t70 -5t86 -2q47 0 90 11.5t74.5 34t50 56t18.5 78.5q0 20 -10 43t-27.5 41.5t-38 30.5t-40.5 12t-23.5 -15t0.5 -30 q4 -16 1 -35.5t-14.5 -38t-32 -31t-50.5 -12.5q-49 0 -78 31t-29 72q0 61 50.5 100t111.5 39q68 0 119 -18.5t85 -49t50 -71.5t16 -86q0 -160 -86 -247t-227 -110q-35 -6 -37 -20t8 -31q20 -31 37 -85t17 -140q0 -131 -54.5 -234.5t-147.5 -175t-220 -109.5t-273 -38 q-213 0 -351 53t-219 133t-112.5 172t-31.5 170zM362 373l14 -36q13 -36 63 -81t149.5 -82t271.5 -37q154 0 261.5 26.5t178 64.5t108.5 80t51.5 72t8 40t-21.5 -14q-25 -37 -62.5 -80t-103.5 -79t-167 -59.5t-255 -19.5q-154 2 -250 35t-151.5 69.5t-74.5 68.5zM362 1262 q23 31 52 57q25 23 61.5 43t83.5 27q47 6 91 0.5t79 -13.5t55 -16l21 -8l-18 17q-17 17 -52 33.5t-88 22t-129 -19.5q-49 -16 -79.5 -41t-47.5 -47q-21 -26 -29 -55zM536.5 935q-10.5 -7 20.5 -3q31 2 62.5 -9.5t53 -21.5t29 -10t-11.5 24q-18 25 -53 30t-62.5 1t-38 -11z M961 862q86 66 184 85.5t186 -3.5q111 -29 189.5 -23.5t131 28t79 52t35 50t-2 22.5t-32.5 -31q-35 -51 -91.5 -67.5t-123 -15t-138 10.5t-137.5 11t-119 -16.5t-89 -42t-55 -42t-17 -18.5zM1083 562.5q2 -15.5 13 -27.5q8 -10 8 -2t1 24t8 34.5t32 31.5q25 12 44 10 t31.5 -7t15.5 -7.5t-7 10.5q-18 18 -49 25.5t-60 -7.5q-14 -8 -23.5 -22.5t-12.5 -30.5t-1 -31.5zM1436 1223.5q2 -17.5 12 -29.5q8 -10 12 3t9.5 36.5t16.5 47.5t36 36t47 19t36.5 10.5t13.5 5.5t-24 6q-39 2 -62.5 -3t-47.5 -24q-18 -12 -30.5 -31.5t-16.5 -39t-2 -37z " />
<glyph unicode="&#xd7;" d="M154 483q0 92 27.5 164t67.5 124t84 85t75 47q-41 53 -67 113.5t-26 130.5q0 57 21.5 110.5t62.5 94.5t101.5 65.5t138.5 24.5q100 0 166.5 -52.5t66.5 -162.5q0 -37 -12 -63.5t-29.5 -44t-37 -27t-31.5 -9.5t-6 37q4 27 -5.5 50.5t-27.5 42t-46 28.5t-61 10 q-29 0 -58.5 -12t-54 -34.5t-41 -58.5t-16.5 -81q0 -29 5.5 -68t27.5 -67q20 4 52 17.5t81 13.5q45 0 76 -16.5t31 -67.5q0 -47 -22.5 -73t-78.5 -26q-37 0 -77.5 19.5t-69.5 38.5q-10 12 -19.5 15t-27.5 -11q-45 -35 -73.5 -106.5t-28.5 -149.5q0 -188 148 -293t429 -105 q141 0 247.5 31t179.5 83t110 122t37 145q0 45 -18.5 90t-54.5 81t-90.5 58.5t-125.5 22.5q-68 0 -109 -20.5t-63.5 -48t-29.5 -59.5t-7 -52t7 -39.5t18.5 -35t22.5 -25t17 -9.5q8 0 15.5 9.5t3.5 21.5q-4 14 0 33.5t16 37t29.5 30t42.5 12.5q68 0 97.5 -29t29.5 -74 q0 -51 -33 -92t-129 -41q-41 0 -82 15.5t-72.5 46t-51 78t-19.5 112.5q0 61 24.5 116.5t70.5 98.5t111.5 67.5t147.5 24.5q37 0 67.5 -2t63.5 -5t70 -5t86 -2q47 0 90 11.5t74.5 34t50 56t18.5 78.5q0 20 -10 43t-27.5 41.5t-38 30.5t-40.5 12t-23.5 -15t0.5 -30 q4 -16 1 -35.5t-14.5 -38t-32 -31t-50.5 -12.5q-49 0 -78 31t-29 72q0 61 50.5 100t111.5 39q68 0 119 -18.5t85 -49t50 -71.5t16 -86q0 -160 -86 -247t-227 -110q-35 -6 -37 -20t8 -31q20 -31 37 -85t17 -140q0 -131 -54.5 -234.5t-147.5 -175t-220 -109.5t-273 -38 q-213 0 -351 53t-219 133t-112.5 172t-31.5 170zM362 373l14 -36q13 -36 63 -81t149.5 -82t271.5 -37q154 0 261.5 26.5t178 64.5t108.5 80t51.5 72t8 40t-21.5 -14q-25 -37 -62.5 -80t-103.5 -79t-167 -59.5t-255 -19.5q-154 2 -250 35t-151.5 69.5t-74.5 68.5zM362 1262 q23 31 52 57q25 23 61.5 43t83.5 27q47 6 91 0.5t79 -13.5t55 -16l21 -8l-18 17q-17 17 -52 33.5t-88 22t-129 -19.5q-49 -16 -79.5 -41t-47.5 -47q-21 -26 -29 -55zM536.5 935q-10.5 -7 20.5 -3q31 2 62.5 -9.5t53 -21.5t29 -10t-11.5 24q-18 25 -53 30t-62.5 1t-38 -11z M961 862q86 66 184 85.5t186 -3.5q111 -29 189.5 -23.5t131 28t79 52t35 50t-2 22.5t-32.5 -31q-35 -51 -91.5 -67.5t-123 -15t-138 10.5t-137.5 11t-119 -16.5t-89 -42t-55 -42t-17 -18.5zM1083 562.5q2 -15.5 13 -27.5q8 -10 8 -2t1 24t8 34.5t32 31.5q25 12 44 10 t31.5 -7t15.5 -7.5t-7 10.5q-18 18 -49 25.5t-60 -7.5q-14 -8 -23.5 -22.5t-12.5 -30.5t-1 -31.5zM1436 1223.5q2 -17.5 12 -29.5q8 -10 12 3t9.5 36.5t16.5 47.5t36 36t47 19t36.5 10.5t13.5 5.5t-24 6q-39 2 -62.5 -3t-47.5 -24q-18 -12 -30.5 -31.5t-16.5 -39t-2 -37z " />
<glyph unicode="&#xd8;" d="M154 483q0 92 27.5 164t67.5 124t84 85t75 47q-41 53 -67 113.5t-26 130.5q0 57 21.5 110.5t62.5 94.5t101.5 65.5t138.5 24.5q100 0 166.5 -52.5t66.5 -162.5q0 -37 -12 -63.5t-29.5 -44t-37 -27t-31.5 -9.5t-6 37q4 27 -5.5 50.5t-27.5 42t-46 28.5t-61 10 q-29 0 -58.5 -12t-54 -34.5t-41 -58.5t-16.5 -81q0 -29 5.5 -68t27.5 -67q20 4 52 17.5t81 13.5q45 0 76 -16.5t31 -67.5q0 -47 -22.5 -73t-78.5 -26q-37 0 -77.5 19.5t-69.5 38.5q-10 12 -19.5 15t-27.5 -11q-45 -35 -73.5 -106.5t-28.5 -149.5q0 -188 148 -293t429 -105 q141 0 247.5 31t179.5 83t110 122t37 145q0 45 -18.5 90t-54.5 81t-90.5 58.5t-125.5 22.5q-68 0 -109 -20.5t-63.5 -48t-29.5 -59.5t-7 -52t7 -39.5t18.5 -35t22.5 -25t17 -9.5q8 0 15.5 9.5t3.5 21.5q-4 14 0 33.5t16 37t29.5 30t42.5 12.5q68 0 97.5 -29t29.5 -74 q0 -51 -33 -92t-129 -41q-41 0 -82 15.5t-72.5 46t-51 78t-19.5 112.5q0 61 24.5 116.5t70.5 98.5t111.5 67.5t147.5 24.5q37 0 67.5 -2t63.5 -5t70 -5t86 -2q47 0 90 11.5t74.5 34t50 56t18.5 78.5q0 20 -10 43t-27.5 41.5t-38 30.5t-40.5 12t-23.5 -15t0.5 -30 q4 -16 1 -35.5t-14.5 -38t-32 -31t-50.5 -12.5q-49 0 -78 31t-29 72q0 61 50.5 100t111.5 39q68 0 119 -18.5t85 -49t50 -71.5t16 -86q0 -160 -86 -247t-227 -110q-35 -6 -37 -20t8 -31q20 -31 37 -85t17 -140q0 -131 -54.5 -234.5t-147.5 -175t-220 -109.5t-273 -38 q-213 0 -351 53t-219 133t-112.5 172t-31.5 170zM362 373l14 -36q13 -36 63 -81t149.5 -82t271.5 -37q154 0 261.5 26.5t178 64.5t108.5 80t51.5 72t8 40t-21.5 -14q-25 -37 -62.5 -80t-103.5 -79t-167 -59.5t-255 -19.5q-154 2 -250 35t-151.5 69.5t-74.5 68.5zM362 1262 q23 31 52 57q25 23 61.5 43t83.5 27q47 6 91 0.5t79 -13.5t55 -16l21 -8l-18 17q-17 17 -52 33.5t-88 22t-129 -19.5q-49 -16 -79.5 -41t-47.5 -47q-21 -26 -29 -55zM536.5 935q-10.5 -7 20.5 -3q31 2 62.5 -9.5t53 -21.5t29 -10t-11.5 24q-18 25 -53 30t-62.5 1t-38 -11z M961 862q86 66 184 85.5t186 -3.5q111 -29 189.5 -23.5t131 28t79 52t35 50t-2 22.5t-32.5 -31q-35 -51 -91.5 -67.5t-123 -15t-138 10.5t-137.5 11t-119 -16.5t-89 -42t-55 -42t-17 -18.5zM1083 562.5q2 -15.5 13 -27.5q8 -10 8 -2t1 24t8 34.5t32 31.5q25 12 44 10 t31.5 -7t15.5 -7.5t-7 10.5q-18 18 -49 25.5t-60 -7.5q-14 -8 -23.5 -22.5t-12.5 -30.5t-1 -31.5zM1436 1223.5q2 -17.5 12 -29.5q8 -10 12 3t9.5 36.5t16.5 47.5t36 36t47 19t36.5 10.5t13.5 5.5t-24 6q-39 2 -62.5 -3t-47.5 -24q-18 -12 -30.5 -31.5t-16.5 -39t-2 -37z " />
<glyph unicode="&#xd9;" d="M154 483q0 92 27.5 164t67.5 124t84 85t75 47q-41 53 -67 113.5t-26 130.5q0 57 21.5 110.5t62.5 94.5t101.5 65.5t138.5 24.5q100 0 166.5 -52.5t66.5 -162.5q0 -37 -12 -63.5t-29.5 -44t-37 -27t-31.5 -9.5t-6 37q4 27 -5.5 50.5t-27.5 42t-46 28.5t-61 10 q-29 0 -58.5 -12t-54 -34.5t-41 -58.5t-16.5 -81q0 -29 5.5 -68t27.5 -67q20 4 52 17.5t81 13.5q45 0 76 -16.5t31 -67.5q0 -47 -22.5 -73t-78.5 -26q-37 0 -77.5 19.5t-69.5 38.5q-10 12 -19.5 15t-27.5 -11q-45 -35 -73.5 -106.5t-28.5 -149.5q0 -188 148 -293t429 -105 q141 0 247.5 31t179.5 83t110 122t37 145q0 45 -18.5 90t-54.5 81t-90.5 58.5t-125.5 22.5q-68 0 -109 -20.5t-63.5 -48t-29.5 -59.5t-7 -52t7 -39.5t18.5 -35t22.5 -25t17 -9.5q8 0 15.5 9.5t3.5 21.5q-4 14 0 33.5t16 37t29.5 30t42.5 12.5q68 0 97.5 -29t29.5 -74 q0 -51 -33 -92t-129 -41q-41 0 -82 15.5t-72.5 46t-51 78t-19.5 112.5q0 61 24.5 116.5t70.5 98.5t111.5 67.5t147.5 24.5q37 0 67.5 -2t63.5 -5t70 -5t86 -2q47 0 90 11.5t74.5 34t50 56t18.5 78.5q0 20 -10 43t-27.5 41.5t-38 30.5t-40.5 12t-23.5 -15t0.5 -30 q4 -16 1 -35.5t-14.5 -38t-32 -31t-50.5 -12.5q-49 0 -78 31t-29 72q0 61 50.5 100t111.5 39q68 0 119 -18.5t85 -49t50 -71.5t16 -86q0 -160 -86 -247t-227 -110q-35 -6 -37 -20t8 -31q20 -31 37 -85t17 -140q0 -131 -54.5 -234.5t-147.5 -175t-220 -109.5t-273 -38 q-213 0 -351 53t-219 133t-112.5 172t-31.5 170zM362 373l14 -36q13 -36 63 -81t149.5 -82t271.5 -37q154 0 261.5 26.5t178 64.5t108.5 80t51.5 72t8 40t-21.5 -14q-25 -37 -62.5 -80t-103.5 -79t-167 -59.5t-255 -19.5q-154 2 -250 35t-151.5 69.5t-74.5 68.5zM362 1262 q23 31 52 57q25 23 61.5 43t83.5 27q47 6 91 0.5t79 -13.5t55 -16l21 -8l-18 17q-17 17 -52 33.5t-88 22t-129 -19.5q-49 -16 -79.5 -41t-47.5 -47q-21 -26 -29 -55zM536.5 935q-10.5 -7 20.5 -3q31 2 62.5 -9.5t53 -21.5t29 -10t-11.5 24q-18 25 -53 30t-62.5 1t-38 -11z M961 862q86 66 184 85.5t186 -3.5q111 -29 189.5 -23.5t131 28t79 52t35 50t-2 22.5t-32.5 -31q-35 -51 -91.5 -67.5t-123 -15t-138 10.5t-137.5 11t-119 -16.5t-89 -42t-55 -42t-17 -18.5zM1083 562.5q2 -15.5 13 -27.5q8 -10 8 -2t1 24t8 34.5t32 31.5q25 12 44 10 t31.5 -7t15.5 -7.5t-7 10.5q-18 18 -49 25.5t-60 -7.5q-14 -8 -23.5 -22.5t-12.5 -30.5t-1 -31.5zM1436 1223.5q2 -17.5 12 -29.5q8 -10 12 3t9.5 36.5t16.5 47.5t36 36t47 19t36.5 10.5t13.5 5.5t-24 6q-39 2 -62.5 -3t-47.5 -24q-18 -12 -30.5 -31.5t-16.5 -39t-2 -37z " />
<glyph unicode="&#xda;" d="M154 483q0 92 27.5 164t67.5 124t84 85t75 47q-41 53 -67 113.5t-26 130.5q0 57 21.5 110.5t62.5 94.5t101.5 65.5t138.5 24.5q100 0 166.5 -52.5t66.5 -162.5q0 -37 -12 -63.5t-29.5 -44t-37 -27t-31.5 -9.5t-6 37q4 27 -5.5 50.5t-27.5 42t-46 28.5t-61 10 q-29 0 -58.5 -12t-54 -34.5t-41 -58.5t-16.5 -81q0 -29 5.5 -68t27.5 -67q20 4 52 17.5t81 13.5q45 0 76 -16.5t31 -67.5q0 -47 -22.5 -73t-78.5 -26q-37 0 -77.5 19.5t-69.5 38.5q-10 12 -19.5 15t-27.5 -11q-45 -35 -73.5 -106.5t-28.5 -149.5q0 -188 148 -293t429 -105 q141 0 247.5 31t179.5 83t110 122t37 145q0 45 -18.5 90t-54.5 81t-90.5 58.5t-125.5 22.5q-68 0 -109 -20.5t-63.5 -48t-29.5 -59.5t-7 -52t7 -39.5t18.5 -35t22.5 -25t17 -9.5q8 0 15.5 9.5t3.5 21.5q-4 14 0 33.5t16 37t29.5 30t42.5 12.5q68 0 97.5 -29t29.5 -74 q0 -51 -33 -92t-129 -41q-41 0 -82 15.5t-72.5 46t-51 78t-19.5 112.5q0 61 24.5 116.5t70.5 98.5t111.5 67.5t147.5 24.5q37 0 67.5 -2t63.5 -5t70 -5t86 -2q47 0 90 11.5t74.5 34t50 56t18.5 78.5q0 20 -10 43t-27.5 41.5t-38 30.5t-40.5 12t-23.5 -15t0.5 -30 q4 -16 1 -35.5t-14.5 -38t-32 -31t-50.5 -12.5q-49 0 -78 31t-29 72q0 61 50.5 100t111.5 39q68 0 119 -18.5t85 -49t50 -71.5t16 -86q0 -160 -86 -247t-227 -110q-35 -6 -37 -20t8 -31q20 -31 37 -85t17 -140q0 -131 -54.5 -234.5t-147.5 -175t-220 -109.5t-273 -38 q-213 0 -351 53t-219 133t-112.5 172t-31.5 170zM362 373l14 -36q13 -36 63 -81t149.5 -82t271.5 -37q154 0 261.5 26.5t178 64.5t108.5 80t51.5 72t8 40t-21.5 -14q-25 -37 -62.5 -80t-103.5 -79t-167 -59.5t-255 -19.5q-154 2 -250 35t-151.5 69.5t-74.5 68.5zM362 1262 q23 31 52 57q25 23 61.5 43t83.5 27q47 6 91 0.5t79 -13.5t55 -16l21 -8l-18 17q-17 17 -52 33.5t-88 22t-129 -19.5q-49 -16 -79.5 -41t-47.5 -47q-21 -26 -29 -55zM536.5 935q-10.5 -7 20.5 -3q31 2 62.5 -9.5t53 -21.5t29 -10t-11.5 24q-18 25 -53 30t-62.5 1t-38 -11z M961 862q86 66 184 85.5t186 -3.5q111 -29 189.5 -23.5t131 28t79 52t35 50t-2 22.5t-32.5 -31q-35 -51 -91.5 -67.5t-123 -15t-138 10.5t-137.5 11t-119 -16.5t-89 -42t-55 -42t-17 -18.5zM1083 562.5q2 -15.5 13 -27.5q8 -10 8 -2t1 24t8 34.5t32 31.5q25 12 44 10 t31.5 -7t15.5 -7.5t-7 10.5q-18 18 -49 25.5t-60 -7.5q-14 -8 -23.5 -22.5t-12.5 -30.5t-1 -31.5zM1436 1223.5q2 -17.5 12 -29.5q8 -10 12 3t9.5 36.5t16.5 47.5t36 36t47 19t36.5 10.5t13.5 5.5t-24 6q-39 2 -62.5 -3t-47.5 -24q-18 -12 -30.5 -31.5t-16.5 -39t-2 -37z " />
<glyph unicode="&#xdb;" d="M154 483q0 92 27.5 164t67.5 124t84 85t75 47q-41 53 -67 113.5t-26 130.5q0 57 21.5 110.5t62.5 94.5t101.5 65.5t138.5 24.5q100 0 166.5 -52.5t66.5 -162.5q0 -37 -12 -63.5t-29.5 -44t-37 -27t-31.5 -9.5t-6 37q4 27 -5.5 50.5t-27.5 42t-46 28.5t-61 10 q-29 0 -58.5 -12t-54 -34.5t-41 -58.5t-16.5 -81q0 -29 5.5 -68t27.5 -67q20 4 52 17.5t81 13.5q45 0 76 -16.5t31 -67.5q0 -47 -22.5 -73t-78.5 -26q-37 0 -77.5 19.5t-69.5 38.5q-10 12 -19.5 15t-27.5 -11q-45 -35 -73.5 -106.5t-28.5 -149.5q0 -188 148 -293t429 -105 q141 0 247.5 31t179.5 83t110 122t37 145q0 45 -18.5 90t-54.5 81t-90.5 58.5t-125.5 22.5q-68 0 -109 -20.5t-63.5 -48t-29.5 -59.5t-7 -52t7 -39.5t18.5 -35t22.5 -25t17 -9.5q8 0 15.5 9.5t3.5 21.5q-4 14 0 33.5t16 37t29.5 30t42.5 12.5q68 0 97.5 -29t29.5 -74 q0 -51 -33 -92t-129 -41q-41 0 -82 15.5t-72.5 46t-51 78t-19.5 112.5q0 61 24.5 116.5t70.5 98.5t111.5 67.5t147.5 24.5q37 0 67.5 -2t63.5 -5t70 -5t86 -2q47 0 90 11.5t74.5 34t50 56t18.5 78.5q0 20 -10 43t-27.5 41.5t-38 30.5t-40.5 12t-23.5 -15t0.5 -30 q4 -16 1 -35.5t-14.5 -38t-32 -31t-50.5 -12.5q-49 0 -78 31t-29 72q0 61 50.5 100t111.5 39q68 0 119 -18.5t85 -49t50 -71.5t16 -86q0 -160 -86 -247t-227 -110q-35 -6 -37 -20t8 -31q20 -31 37 -85t17 -140q0 -131 -54.5 -234.5t-147.5 -175t-220 -109.5t-273 -38 q-213 0 -351 53t-219 133t-112.5 172t-31.5 170zM362 373l14 -36q13 -36 63 -81t149.5 -82t271.5 -37q154 0 261.5 26.5t178 64.5t108.5 80t51.5 72t8 40t-21.5 -14q-25 -37 -62.5 -80t-103.5 -79t-167 -59.5t-255 -19.5q-154 2 -250 35t-151.5 69.5t-74.5 68.5zM362 1262 q23 31 52 57q25 23 61.5 43t83.5 27q47 6 91 0.5t79 -13.5t55 -16l21 -8l-18 17q-17 17 -52 33.5t-88 22t-129 -19.5q-49 -16 -79.5 -41t-47.5 -47q-21 -26 -29 -55zM536.5 935q-10.5 -7 20.5 -3q31 2 62.5 -9.5t53 -21.5t29 -10t-11.5 24q-18 25 -53 30t-62.5 1t-38 -11z M961 862q86 66 184 85.5t186 -3.5q111 -29 189.5 -23.5t131 28t79 52t35 50t-2 22.5t-32.5 -31q-35 -51 -91.5 -67.5t-123 -15t-138 10.5t-137.5 11t-119 -16.5t-89 -42t-55 -42t-17 -18.5zM1083 562.5q2 -15.5 13 -27.5q8 -10 8 -2t1 24t8 34.5t32 31.5q25 12 44 10 t31.5 -7t15.5 -7.5t-7 10.5q-18 18 -49 25.5t-60 -7.5q-14 -8 -23.5 -22.5t-12.5 -30.5t-1 -31.5zM1436 1223.5q2 -17.5 12 -29.5q8 -10 12 3t9.5 36.5t16.5 47.5t36 36t47 19t36.5 10.5t13.5 5.5t-24 6q-39 2 -62.5 -3t-47.5 -24q-18 -12 -30.5 -31.5t-16.5 -39t-2 -37z " />
<glyph unicode="&#xdc;" d="M154 483q0 92 27.5 164t67.5 124t84 85t75 47q-41 53 -67 113.5t-26 130.5q0 57 21.5 110.5t62.5 94.5t101.5 65.5t138.5 24.5q100 0 166.5 -52.5t66.5 -162.5q0 -37 -12 -63.5t-29.5 -44t-37 -27t-31.5 -9.5t-6 37q4 27 -5.5 50.5t-27.5 42t-46 28.5t-61 10 q-29 0 -58.5 -12t-54 -34.5t-41 -58.5t-16.5 -81q0 -29 5.5 -68t27.5 -67q20 4 52 17.5t81 13.5q45 0 76 -16.5t31 -67.5q0 -47 -22.5 -73t-78.5 -26q-37 0 -77.5 19.5t-69.5 38.5q-10 12 -19.5 15t-27.5 -11q-45 -35 -73.5 -106.5t-28.5 -149.5q0 -188 148 -293t429 -105 q141 0 247.5 31t179.5 83t110 122t37 145q0 45 -18.5 90t-54.5 81t-90.5 58.5t-125.5 22.5q-68 0 -109 -20.5t-63.5 -48t-29.5 -59.5t-7 -52t7 -39.5t18.5 -35t22.5 -25t17 -9.5q8 0 15.5 9.5t3.5 21.5q-4 14 0 33.5t16 37t29.5 30t42.5 12.5q68 0 97.5 -29t29.5 -74 q0 -51 -33 -92t-129 -41q-41 0 -82 15.5t-72.5 46t-51 78t-19.5 112.5q0 61 24.5 116.5t70.5 98.5t111.5 67.5t147.5 24.5q37 0 67.5 -2t63.5 -5t70 -5t86 -2q47 0 90 11.5t74.5 34t50 56t18.5 78.5q0 20 -10 43t-27.5 41.5t-38 30.5t-40.5 12t-23.5 -15t0.5 -30 q4 -16 1 -35.5t-14.5 -38t-32 -31t-50.5 -12.5q-49 0 -78 31t-29 72q0 61 50.5 100t111.5 39q68 0 119 -18.5t85 -49t50 -71.5t16 -86q0 -160 -86 -247t-227 -110q-35 -6 -37 -20t8 -31q20 -31 37 -85t17 -140q0 -131 -54.5 -234.5t-147.5 -175t-220 -109.5t-273 -38 q-213 0 -351 53t-219 133t-112.5 172t-31.5 170zM362 373l14 -36q13 -36 63 -81t149.5 -82t271.5 -37q154 0 261.5 26.5t178 64.5t108.5 80t51.5 72t8 40t-21.5 -14q-25 -37 -62.5 -80t-103.5 -79t-167 -59.5t-255 -19.5q-154 2 -250 35t-151.5 69.5t-74.5 68.5zM362 1262 q23 31 52 57q25 23 61.5 43t83.5 27q47 6 91 0.5t79 -13.5t55 -16l21 -8l-18 17q-17 17 -52 33.5t-88 22t-129 -19.5q-49 -16 -79.5 -41t-47.5 -47q-21 -26 -29 -55zM536.5 935q-10.5 -7 20.5 -3q31 2 62.5 -9.5t53 -21.5t29 -10t-11.5 24q-18 25 -53 30t-62.5 1t-38 -11z M961 862q86 66 184 85.5t186 -3.5q111 -29 189.5 -23.5t131 28t79 52t35 50t-2 22.5t-32.5 -31q-35 -51 -91.5 -67.5t-123 -15t-138 10.5t-137.5 11t-119 -16.5t-89 -42t-55 -42t-17 -18.5zM1083 562.5q2 -15.5 13 -27.5q8 -10 8 -2t1 24t8 34.5t32 31.5q25 12 44 10 t31.5 -7t15.5 -7.5t-7 10.5q-18 18 -49 25.5t-60 -7.5q-14 -8 -23.5 -22.5t-12.5 -30.5t-1 -31.5zM1436 1223.5q2 -17.5 12 -29.5q8 -10 12 3t9.5 36.5t16.5 47.5t36 36t47 19t36.5 10.5t13.5 5.5t-24 6q-39 2 -62.5 -3t-47.5 -24q-18 -12 -30.5 -31.5t-16.5 -39t-2 -37z " />
<glyph unicode="&#xdd;" d="M154 483q0 92 27.5 164t67.5 124t84 85t75 47q-41 53 -67 113.5t-26 130.5q0 57 21.5 110.5t62.5 94.5t101.5 65.5t138.5 24.5q100 0 166.5 -52.5t66.5 -162.5q0 -37 -12 -63.5t-29.5 -44t-37 -27t-31.5 -9.5t-6 37q4 27 -5.5 50.5t-27.5 42t-46 28.5t-61 10 q-29 0 -58.5 -12t-54 -34.5t-41 -58.5t-16.5 -81q0 -29 5.5 -68t27.5 -67q20 4 52 17.5t81 13.5q45 0 76 -16.5t31 -67.5q0 -47 -22.5 -73t-78.5 -26q-37 0 -77.5 19.5t-69.5 38.5q-10 12 -19.5 15t-27.5 -11q-45 -35 -73.5 -106.5t-28.5 -149.5q0 -188 148 -293t429 -105 q141 0 247.5 31t179.5 83t110 122t37 145q0 45 -18.5 90t-54.5 81t-90.5 58.5t-125.5 22.5q-68 0 -109 -20.5t-63.5 -48t-29.5 -59.5t-7 -52t7 -39.5t18.5 -35t22.5 -25t17 -9.5q8 0 15.5 9.5t3.5 21.5q-4 14 0 33.5t16 37t29.5 30t42.5 12.5q68 0 97.5 -29t29.5 -74 q0 -51 -33 -92t-129 -41q-41 0 -82 15.5t-72.5 46t-51 78t-19.5 112.5q0 61 24.5 116.5t70.5 98.5t111.5 67.5t147.5 24.5q37 0 67.5 -2t63.5 -5t70 -5t86 -2q47 0 90 11.5t74.5 34t50 56t18.5 78.5q0 20 -10 43t-27.5 41.5t-38 30.5t-40.5 12t-23.5 -15t0.5 -30 q4 -16 1 -35.5t-14.5 -38t-32 -31t-50.5 -12.5q-49 0 -78 31t-29 72q0 61 50.5 100t111.5 39q68 0 119 -18.5t85 -49t50 -71.5t16 -86q0 -160 -86 -247t-227 -110q-35 -6 -37 -20t8 -31q20 -31 37 -85t17 -140q0 -131 -54.5 -234.5t-147.5 -175t-220 -109.5t-273 -38 q-213 0 -351 53t-219 133t-112.5 172t-31.5 170zM362 373l14 -36q13 -36 63 -81t149.5 -82t271.5 -37q154 0 261.5 26.5t178 64.5t108.5 80t51.5 72t8 40t-21.5 -14q-25 -37 -62.5 -80t-103.5 -79t-167 -59.5t-255 -19.5q-154 2 -250 35t-151.5 69.5t-74.5 68.5zM362 1262 q23 31 52 57q25 23 61.5 43t83.5 27q47 6 91 0.5t79 -13.5t55 -16l21 -8l-18 17q-17 17 -52 33.5t-88 22t-129 -19.5q-49 -16 -79.5 -41t-47.5 -47q-21 -26 -29 -55zM536.5 935q-10.5 -7 20.5 -3q31 2 62.5 -9.5t53 -21.5t29 -10t-11.5 24q-18 25 -53 30t-62.5 1t-38 -11z M961 862q86 66 184 85.5t186 -3.5q111 -29 189.5 -23.5t131 28t79 52t35 50t-2 22.5t-32.5 -31q-35 -51 -91.5 -67.5t-123 -15t-138 10.5t-137.5 11t-119 -16.5t-89 -42t-55 -42t-17 -18.5zM1083 562.5q2 -15.5 13 -27.5q8 -10 8 -2t1 24t8 34.5t32 31.5q25 12 44 10 t31.5 -7t15.5 -7.5t-7 10.5q-18 18 -49 25.5t-60 -7.5q-14 -8 -23.5 -22.5t-12.5 -30.5t-1 -31.5zM1436 1223.5q2 -17.5 12 -29.5q8 -10 12 3t9.5 36.5t16.5 47.5t36 36t47 19t36.5 10.5t13.5 5.5t-24 6q-39 2 -62.5 -3t-47.5 -24q-18 -12 -30.5 -31.5t-16.5 -39t-2 -37z " />
</font>
</defs>
</svg>
